<?xml version="1.0" standalone="no"?>
<!DOCTYPE svg PUBLIC "-//W3C//DTD SVG 1.1//EN" "http://www.w3.org/Graphics/SVG/1.1/DTD/svg11.dtd" >
<svg xmlns="http://www.w3.org/2000/svg">
<metadata>Generated by IcoMoon</metadata>
<defs>
<font id="icomoon" horiz-adv-x="1024">
<font-face units-per-em="1024" ascent="960" descent="-64" />
<missing-glyph horiz-adv-x="1024" />
<glyph unicode="&#x20;" horiz-adv-x="512" d="" />
<glyph unicode="&#xe609;" glyph-name="cart" d="M204.8 89.6c0-56.525 45.875-102.4 102.4-102.4 56.576 0 102.4 45.875 102.4 102.4s-45.824 102.4-102.4 102.4c-56.525 0-102.4-45.875-102.4-102.4zM716.8 89.6c0-56.525 45.875-102.4 102.4-102.4 56.576 0 102.4 45.875 102.4 102.4s-45.824 102.4-102.4 102.4c-56.525 0-102.4-45.875-102.4-102.4zM386.406 331.674l566.733 161.894c10.803 3.123 19.661 14.848 19.661 26.112v281.6h-721.92v87.040c0 11.264-9.165 20.48-20.48 20.48h-158.72c-11.264 0-20.48-9.216-20.48-20.48v-81.92h99.482l100.762-463.718 9.728-48.282v-76.8c0-11.264 9.216-20.48 20.429-20.48h670.771c11.213 0 20.429 9.216 20.429 20.48v76.8h-575.898c-58.829 0-60.058 23.040-10.496 37.274z" />
<glyph unicode="&#xe900;" glyph-name="check_circle" horiz-adv-x="970" d="M445.44 918.555c-87.633-8.893-165.726-37.726-234.496-86.555-35.741-26.619-66.871-56.312-94.071-89.361l-0.729-0.913c-54.153-68.017-90.238-152.638-99.752-245.136l-0.169-2.025c-2.156-21.504-2.156-69.47 0-90.974 10.132-102.184 53.949-200.057 122.072-272.923 78.794-84.184 171.924-132.473 287.744-149.181 19.564-2.803 98.466-2.803 118.029 0 62.572 9 114.742 25.977 166.535 54.164 46.832 25.837 86.832 57.488 120.894 94.668l0.315 0.349c68.015 72.704 111.939 170.954 122.072 272.923 2.156 21.396 2.156 67.045 0 89.95-8.813 86.924-39.691 165.248-86.887 231.081l0.978-1.436c-31.38 42.439-67.833 78.756-109.018 109.009l-1.413 0.99c-45.126 31.823-97.791 56.762-154.481 71.821l-3.431 0.775c-37.565 9.539-61.494 12.396-107.304 12.989-5.731 0.13-12.484 0.203-19.254 0.203-9.718 0-19.4-0.152-29.044-0.454l1.41 0.035zM536.792 836.096c73.373-10.175 138.581-39.122 192.416-81.793l-0.821 0.628c14.767-11.641 51.254-48.128 62.41-62.518 40.906-52.547 66.722-109.083 78.255-171.439 4.272-21.645 6.717-46.532 6.717-71.989 0-104.744-41.386-199.822-108.698-269.774l0.119 0.125c-63.865-66.506-142.713-106.173-235.251-118.407-13.221-1.309-28.577-2.056-44.107-2.056-0.978 0-1.955 0.003-2.931 0.009l0.15-0.001c-33.576 0-50.984 1.725-81.004 7.976-136.515 28.456-249.209 130.587-291.517 264.192-6.452 20.061-11.916 44.103-15.361 68.792l-0.269 2.349c-2.533 19.133-2.533 73.512 0 92.968 9.572 75.51 39.039 142.772 82.925 198.075l-0.628-0.82c11.426 14.552 47.912 51.038 62.518 62.518 30.56 23.66 65.549 43.87 103.114 59.040l2.951 1.053c40.73 15.518 87.833 24.504 137.034 24.504 18.327 0 36.363-1.247 54.027-3.66l-2.052 0.23zM664.522 616.96c-5.336-2.587-38.643-34.762-125.683-121.587l-118.407-118.083-53.787 53.41c-56.643 56.212-61.871 60.416-75.345 60.416-9.647 0-16.761-3.449-26.84-12.989-15.091-14.228-19.025-28.564-12.019-43.493 5.012-10.563 142.929-148.48 153.492-153.492 4.222-2.079 9.191-3.295 14.444-3.295s10.221 1.216 14.64 3.382l-0.196-0.087c10.671 5.012 277.827 272.168 282.84 282.84 6.952 14.875 3.018 29.265-11.803 43.331-14.282 13.474-27.163 16.492-41.337 9.647z" />
<glyph unicode="&#xe901;" glyph-name="Calendar_1" horiz-adv-x="977" d="M274.153 932.166c-4.305-2.283-7.866-5.441-10.549-9.261l-0.063-0.095c-3.491-5.632-3.77-8.099-4.515-42.636l-0.791-36.678-34.211-1.024c-37.888-1.164-56.134-3.072-74.473-7.866-54.644-14.336-101.655-61.673-115.153-115.945-7.68-30.813-7.494-23.412-7.494-328.052 0-221.137 0.465-291.747 2.001-303.057 4.561-33.001 14.895-59.532 32.442-83.037 22.486-29.771 54.289-51.454 91.023-60.776l1.137-0.245c28.439-6.609 35.095-6.749 336.849-6.144 288.954 0.559 290.909 0.559 306.269 4.003 19.316 4.282 28.858 7.54 42.356 14.383 41.193 20.899 73.728 60.090 85.364 102.959 8.006 29.417 7.959 28.207 8.657 299.753 0.838 318.324 0.093 340.48-13.312 375.901-16.663 44.172-55.11 81.687-99.188 96.861-21.597 7.447-55.296 11.45-95.977 11.497h-24.017l-0.093 33.792c-0.047 35.188-1.164 42.496-7.494 49.617-11.683 13.126-44.916 12.521-55.529-1.024-5.399-6.796-6.935-18.292-6.935-51.526v-30.86l-302.173 0.791-0.838 36.678c-0.791 34.63-1.024 37.004-4.561 42.636-5.399 8.751-14.801 12.753-29.743 12.753-9.030 0-13.871-0.884-18.991-3.398zM259.025 736.815c0.791-34.63 1.024-37.004 4.561-42.636 5.353-8.657 15.36-13.033 29.649-13.033s24.297 4.375 29.649 13.033c3.537 5.632 3.77 8.006 4.561 42.636l0.838 36.631 301.847 0.838 0.605-36.259c0.605-37.795 0.977-39.936 8.471-48.175 5.353-5.911 13.684-8.611 26.531-8.611 13.684 0 21.085 2.7 27.043 9.775 6.656 7.959 7.727 14.662 7.727 50.129v32.815l27.276-0.698c33.14-0.884 54.877-3.165 67.956-7.261 20.154-6.237 43.52-26.391 54.365-46.825 10.054-18.851 11.869-32.675 12.847-97.606l0.884-57.437h-769.35l0.093 17.501c0.186 41.658 3.165 102.772 5.492 113.617 8.6 35.608 35.607 63.295 70.148 72.729l0.694 0.162c11.217 2.793 59.718 6.097 80.803 5.492l6.516-0.186 0.791-36.631zM862.953 297.379c-0.652-208.71-0.605-206.895-8.239-228.026-8.378-22.947-33.839-47.802-57.391-55.901-21.271-7.308-20.34-7.308-319.162-7.308-263.308 0-284.579 0.233-298.961 2.886-27.673 4.809-50.921 20.713-65.4 42.867l-0.229 0.373c-13.591 20.806-15.593 30.487-17.455 85.039-0.791 23.738-1.489 113.711-1.536 199.959l-0.093 156.812h769.071l-0.605-196.701zM468.247 422.586c-6.842-3.119-71.494-45.661-82.618-54.365-12.567-9.868-15.686-23.785-8.471-37.935 5.167-10.147 8.471-14.103 16.244-19.363 10.845-7.354 22.714-5.492 40.169 6.237 4.794 3.212 9.263 5.865 9.914 5.865 0.698 0 1.257-29.696 1.257-66.001v-65.955h-17.594c-14.988 0-18.618-0.559-24.809-3.677-12.614-6.377-18.432-22.621-14.662-40.913 2.281-10.892 6.609-16.756 15.407-20.759 6.144-2.746 12.009-3.025 76.567-3.025 67.444-0.047 70.191 0.093 76.94 3.305 9.588 4.701 13.871 12.148 14.848 26.112 1.024 14.243-1.676 24.157-8.332 30.441-7.215 6.749-13.824 8.518-32.209 8.518h-15.965l-0.465 103.843c-0.465 95.744-0.698 104.262-3.351 109.149-4.143 7.54-12.335 16.477-17.641 19.223-6.237 3.258-17.222 2.932-25.228-0.698z" />
<glyph unicode="&#xe902;" glyph-name="Eye" horiz-adv-x="1408" d="M651.2 941.056c-143.872-13.568-274.24-73.92-401.28-185.856-69.882-62.586-130.888-132.825-182.384-209.954l-2.512-3.998c-51.328-77.44-51.648-107.52-1.664-183.168 42.884-64.751 89.233-121.203 140.708-172.516l0.028-0.028c134.912-135.040 270.592-207.040 429.504-227.968 33.024-4.352 114.752-3.648 148.992 1.344 84.289 11.998 160.275 38.701 228.432 77.559l-3.152-1.655c123.52 68.864 244.608 186.048 336.64 325.632 27.648 41.856 35.328 60.992 35.328 88 0 26.944-7.68 46.080-35.328 88-92.032 139.584-213.12 256.704-336.64 325.568-64.646 37.071-140.22 63.682-220.654 75.246l-3.41 0.402c-33.344 4.608-101.184 6.336-132.608 3.392zM774.4 843.584c148.672-21.696 294.016-112.256 418.432-260.864 38.528-46.080 93.12-124.8 93.12-134.272 0-5.312-22.208-40.448-49.088-77.632-65.536-90.56-145.728-169.344-228.992-225.088-171.072-114.56-363.904-128.704-541.056-39.808-111.104 55.744-221.248 155.904-308.672 280.64-8.477 11.829-18.089 26.4-27.206 41.306l-1.914 3.366-9.664 16.768 5.184 10.176c7.424 14.72 43.456 67.072 66.24 96.448 67.776 87.104 149.952 162.304 231.296 211.584 112.64 68.288 233.024 94.72 352.32 77.376zM672.32 685.12c-62.509-8.735-116.357-40.359-153.776-85.977l-0.336-0.423c-33.269-40.628-53.466-93.082-53.568-150.249v-0.023c0-140.544 124.032-252.736 262.144-237.184 81.728 9.152 147.84 53.248 186.88 124.544 17.984 32.768 24.96 59.904 26.624 103.36 1.472 37.44-1.472 58.88-12.352 89.984-26.467 71.054-83.486 125.278-154.646 147.384l-1.706 0.456c-20.608 6.382-44.3 10.057-68.851 10.057-10.722 0-21.28-0.701-31.631-2.060l1.218 0.131zM748.608 585.536c44.608-14.144 84.224-56.768 94.912-102.144 4.544-19.2 4.544-50.688 0-69.952-10.752-45.76-49.984-87.616-96.128-102.656-23.616-7.68-59.904-8.64-82.112-2.176-51.328 15.040-92.864 58.496-103.232 108.16-2.134 9.411-3.357 20.219-3.357 31.312 0 24.069 5.757 46.793 15.968 66.871l-0.387-0.839c15.872 31.744 51.328 61.632 86.272 72.832 25.344 8.128 59.648 7.552 88.064-1.408z" />
<glyph unicode="&#xe903;" glyph-name="Hourclock-converted" horiz-adv-x="745" d="M89.228 946.269c-32.25-5.299-57.732-29.234-65.238-60.194l-0.112-0.548c-1.908-8.285-2.141-18.479-2.141-94.348 0-89.507 0.186-93.556 5.818-111.057 3.584-11.171 11.357-26.252 18.572-36.026 3.537-4.748 47.383-49.757 97.466-99.98 89.274-89.553 90.996-91.369 90.996-96.116s-1.722-6.563-90.996-96.116c-50.083-50.223-93.929-95.232-97.466-99.98-7.215-9.775-14.988-24.855-18.572-36.026-5.632-17.455-5.818-21.597-5.818-110.452 0-75.683 0.186-85.411 2.141-94.348 6.836-28.898 28.437-51.488 56.212-59.62l0.574-0.144c7.727-2.188 20.62-2.281 301.009-2.281s293.283 0.093 301.009 2.281c20.666 5.818 40.82 22.202 49.99 40.541 8.89 17.873 8.937 18.758 8.937 113.571 0 92.672-0.047 93.649-7.494 114.641-5.071 14.005-12.073 26.103-20.831 36.697l0.165-0.205c-3.491 4.236-46.452 47.988-95.511 97.14-87.785 88.017-89.181 89.507-89.181 94.301s1.396 6.284 89.181 94.301c49.059 49.152 92.020 92.905 95.511 97.14 8.593 10.388 15.595 22.487 20.396 35.644l0.27 0.848c7.447 20.992 7.494 21.969 7.494 114.641 0 75.683-0.186 85.411-2.141 94.348-6.144 28.020-27.927 51.2-56.18 59.718-7.075 2.141-21.225 2.281-297.286 2.467-159.372 0.093-292.957-0.279-296.774-0.838zM667.369 876.916c1.686-1.236 3.051-2.809 4.014-4.627l0.036-0.074c0.884-2.001 1.303-28.253 1.303-81.455 0-85.132 0-85.364-6.935-99.188-2.607-5.167-22.202-25.507-94.161-97.745-53.807-54.039-93.231-94.58-96.675-99.421-9.313-12.191-14.922-27.645-14.922-44.408 0-0.702 0.010-1.403 0.029-2.1l-0.002 0.103c0-18.153 4.189-31.185 14.941-46.406 3.398-4.841 43.055-45.615 96.628-99.421 71.913-72.192 91.555-92.579 94.161-97.745 6.935-13.824 6.935-14.057 6.935-99.188 0-54.924-0.419-79.407-1.35-81.548-3.119-6.796 14.708-6.377-289.699-6.377s-286.58-0.419-289.699 6.377c-0.931 2.141-1.35 26.624-1.35 81.548 0 85.132 0 85.364 6.935 99.188 2.607 5.167 22.249 25.553 94.161 97.745 53.574 53.807 93.231 94.58 96.628 99.421 10.752 15.22 14.941 28.253 14.941 46.406s-4.189 31.185-14.941 46.406c-3.398 4.841-43.055 45.615-96.628 99.421-71.913 72.192-91.555 92.579-94.161 97.745-6.935 13.824-6.935 14.057-6.935 99.188 0 54.924 0.419 79.407 1.35 81.548 1.629 3.584 5.12 5.539 11.031 6.144 2.42 0.279 129.769 0.419 282.996 0.372 240.873-0.093 279.040-0.372 281.367-1.908zM227.002 177.571c-13.033-4.655-18.991-14.662-18.991-31.884-0.047-13.079 2.56-20.433 9.216-26.438 9.495-8.657 1.583-8.239 164.445-8.239 165.19 0 155.555-0.512 165.236 9.169 6.33 6.284 8.378 12.707 8.378 26.438 0 13.545-4.282 22.621-13.405 28.253l-6.097 3.77-152.157 0.279c-122.228 0.233-153.041-0.047-156.625-1.35z" />
<glyph unicode="&#xe904;" glyph-name="Icon" horiz-adv-x="585" d="M47.762 957.659c-15.76-9.010-28.907-20.803-39.18-34.833l-0.244-0.349c-8.338-12.654-8.338-12.727-8.338-35.621s0-22.821 8.265-35.621c2.56-4.023 66.56-68.681 202.313-204.507l198.51-198.729-198.51-198.729c-135.753-135.826-199.753-200.485-202.313-204.507-8.265-12.8-8.265-12.727-8.265-35.621s0-22.967 8.338-35.621c4.901-7.534 21.65-24.283 29.184-29.184 12.654-8.338 12.727-8.338 35.621-8.338s22.601-0.073 36.059 8.558c5.851 3.73 454.875 451.584 463.214 462.043 2.633 3.218 6.583 9.143 8.704 13.166l4.023 7.241v20.773c0 23.113 0 23.040-8.265 35.84-2.56 4.023-74.971 77.093-230.107 232.375-76.814 77.256-152.481 152.622-228.512 227.62l-3.716 3.658c-3.842 3.050-8.147 5.932-12.68 8.456l-0.486 0.248-7.241 4.023-20.992-0.073c-19.749 0-21.211-0.146-25.381-2.267z" />
<glyph unicode="&#xe905;" glyph-name="Phone" d="M194.56 942.836c-19.041-5.048-35.616-13.698-49.725-25.247l0.231 0.184c-22.674-18.286-83.48-81.481-94.891-98.597-18.53-27.843-27.843-57.442-29.208-92.989-1.024-27.502 0.926-39.741 13.214-82.554 45.467-155.010 124.062-288.292 228.019-397.145l-0.35 0.369c121.758-127.025 260.486-212.358 426.472-262.29 41.301-12.434 51.2-14.482 75.435-15.604 2.266-0.101 4.923-0.159 7.594-0.159 40.854 0 78.563 13.462 108.934 36.192l-0.475-0.34c14.726 10.971 82.456 78.507 93.33 93.086 17.506 23.454 24.43 45.544 24.43 78.019 0 24.625-2.731 38.034-11.459 56.71-7.022 15.019-16.433 27.014-41.643 53.248-41.594 43.252-65.487 62.513-87.723 70.607-13.99 5.1-30.14 8.049-46.979 8.049-17.297 0-33.866-3.112-49.18-8.806l0.976 0.318c-20.236-7.802-30.866-15.555-60.123-43.691-7.022-6.778-14.531-12.824-16.677-13.458-2.877-0.878-10.825 2.438-31.842 13.263-126.59 66.301-227.076 167.743-290.417 291.364l-1.765 3.792c-8.192 16.384-10.874 23.308-10.094 26.38 0.585 2.292 10.581 14.141 22.187 26.283 18.286 19.115 22.235 24.283 28.867 37.839 11.264 22.967 13.751 33.792 13.8 60.123 0 26.331-2.487 37.352-13.458 59.733-5.803 11.849-11.459 19.7-24.43 34.133-21.797 24.186-61.44 62.171-75.142 72.021-13.154 9.231-28.621 16.223-45.302 20.020l-0.875 0.168c-16.628 3.56-46.080 3.023-61.733-1.024zM252.587 869.108c9.411-4.486 16.53-10.679 46.421-40.424 42.423-42.082 44.91-46.031 44.812-70.9-0.098-21.797-4.047-29.257-29.55-55.93-8.238-8.336-16.026-17.175-23.292-26.444l-0.504-0.667c-7.453-12.966-11.85-28.509-11.85-45.079 0-5.47 0.479-10.828 1.398-16.035l-0.081 0.552c2.438-13.019 23.211-55.784 42.569-87.674 67.166-108.944 157.41-197.535 264.392-260.832l3.555-1.946c56.076-32.573 77.775-40.034 104.594-35.986 20.919 3.121 34.133 10.923 58.563 34.475 26.77 25.795 33.987 29.598 56.222 29.598 13.897 0 16.482-0.488 26.624-5.51 9.509-4.681 16.384-10.776 45.3-40.18 41.301-41.935 44.13-46.47 44.13-70.363 0-23.747-2.779-28.136-44.081-70.217-47.104-48.030-56.661-54.808-88.064-62.318-22.040-5.266-36.133-3.852-76.654 7.851-181.736 52.565-333.483 154.234-455.826 305.347-73.094 90.258-133.413 210.944-163.255 326.754-6.973 27.014-7.461 40.96-2.243 61.879 6.924 27.794 11.118 33.646 56.856 79.384 43.154 43.203 48.616 47.348 65.829 50.176 11.752 1.902 21.943 0.293 34.133-5.51z" />
<glyph unicode="&#xe906;" glyph-name="eye" d="M4.267 465.067c4.267 12.8 17.067 34.133 34.133 55.467 25.6 42.667 59.733 85.333 98.133 123.733 106.667 119.467 230.4 187.733 375.467 187.733s268.8-68.267 379.733-183.467c38.4-38.4 68.267-81.067 98.133-123.733 17.067-25.6 25.6-46.933 34.133-55.467 4.267-12.8 4.267-25.6 0-38.4s-17.067-34.133-34.133-55.467c-25.6-42.667-59.733-85.333-98.133-123.733-110.933-119.467-234.667-187.733-379.733-187.733s-268.8 68.267-379.733 183.467c-38.4 38.4-68.267 81.067-98.133 123.733-17.067 25.6-25.6 46.933-34.133 55.467 0 12.8 0 29.867 4.267 38.4zM110.933 418.133c25.6-38.4 55.467-76.8 85.333-110.933 93.867-98.133 200.533-157.867 315.733-157.867s221.867 59.733 315.733 157.867c34.133 34.133 64 72.533 85.333 110.933 8.533 12.8 12.8 21.333 17.067 29.867-4.267 8.533-12.8 21.333-17.067 29.867-25.6 38.4-55.467 76.8-85.333 110.933-93.867 98.133-200.533 157.867-315.733 157.867s-221.867-59.733-315.733-157.867c-34.133-34.133-64-72.533-85.333-110.933-8.533-12.8-12.8-21.333-17.067-29.867 4.267-8.533 8.533-21.333 17.067-29.867zM512 277.333c-93.867 0-170.667 76.8-170.667 170.667s76.8 170.667 170.667 170.667 170.667-76.8 170.667-170.667-76.8-170.667-170.667-170.667zM512 362.667c46.933 0 85.333 38.4 85.333 85.333s-38.4 85.333-85.333 85.333-85.333-38.4-85.333-85.333 38.4-85.333 85.333-85.333z" />
<glyph unicode="&#xe907;" glyph-name="LargeGraph" d="M393.421 944.589c-31.334-5.427-56.627-27.136-67.789-58.266-3.686-10.394-3.891-13.312-4.454-77.722l-0.563-66.918-236.134-0.973-10.803-3.942c-25.997-9.086-46.112-29.167-55.054-54.52l-0.191-0.622-3.942-10.906v-650.24l3.942-10.803c9.626-26.675 28.518-45.619 55.142-55.245l10.906-3.942h855.040l10.906 3.942c26.624 9.626 45.517 28.57 55.142 55.245l3.942 10.803v445.44l-3.942 10.906c-9.133 25.975-29.248 46.057-54.622 54.952l-0.623 0.19-10.803 3.942-236.288 0.973-0.922 338.637-3.942 10.803c-9.086 25.997-29.167 46.112-54.52 55.054l-0.622 0.191-10.906 3.942-115.2 0.256c-63.334 0.154-119.040-0.41-123.699-1.178zM618.189 869.478c5.274-1.485 6.605-2.816 8.090-8.090 1.178-4.301 1.741-141.619 1.741-421.478l0.051-415.181h-232.141l0.051 415.181c0 281.242 0.563 417.178 1.741 421.478 1.434 5.069 2.918 6.707 7.27 7.987 7.731 2.253 205.107 2.355 213.197 0.102zM320.87 345.6v-320.87l-107.981 0.051c-68.864 0-110.234 0.614-114.278 1.741-5.274 1.485-6.605 2.816-8.090 8.090-2.458 8.858-2.458 613.171 0 621.978 1.434 5.069 2.918 6.707 7.27 7.987 3.072 0.87 52.992 1.638 114.278 1.741l108.8 0.154v-320.87zM925.389 459.878c5.274-1.485 6.605-2.816 8.090-8.090 2.406-8.755 2.406-408.422 0-417.178-1.485-5.274-2.816-6.605-8.090-8.090-4.045-1.126-45.414-1.741-114.278-1.741l-107.981-0.051v436.941l107.981-0.051c68.864 0 110.234-0.614 114.278-1.741z" />
<glyph unicode="&#xe908;" glyph-name="Pie_Chart_2" horiz-adv-x="1071" d="M644.98 945.012c-11.497-3.631-17.548-7.447-25.414-15.965-14.988-16.244-13.824 0.745-13.824-200.983v-179.34l4.143-8.378c5.167-10.473 16.058-21.504 25.972-26.298 4.189-2.048 13.591-4.468 20.899-5.399 17.455-2.281 317.673-2.281 335.127 0 16.058 2.048 25.507 6.423 35.421 16.198 15.779 15.639 19.316 33.792 13.824 71.168-10.892 74.473-37.795 138.333-82.711 196.282-15.034 19.409-50.316 54.691-69.865 69.818-54.553 42.782-121.487 72.251-194.597 82.42l-2.151 0.245c-22.854 3.258-37.050 3.305-46.825 0.233zM707.444 872.308c48.221-9.449 101.888-34.769 142.569-67.212 67.46-55.185 113.264-134.645 124.025-224.864l0.158-1.626c0-1.769-31.325-2.234-150.761-2.234h-150.761v301.754l8.471-1.164c4.655-0.605 16.477-2.746 26.298-4.655zM414.813 760.785c-97.559-10.147-184.925-51.759-252.788-120.413-60.044-60.788-99.793-141.312-113.059-229.004-4.003-26.624-4.003-82.246 0-108.87 9.868-65.396 28.951-117.248 61.766-167.657 40.588-62.371 101.376-115.852 166.167-146.246 77.684-36.445 168.448-48.5 248.692-33.001 93.836 18.106 177.431 66.513 236.544 137.076 50.773 60.189 84.852 135.982 94.222 219.253l0.172 1.885c4.096 35.84-4.98 56.46-30.906 70.33l-7.54 4.003-330.985 0.977-0.047 154.764c0 93.184-0.745 159.604-1.815 167.005-4.98 34.723-32.070 53.9-70.423 49.897zM417.932 529.548c0.465-152.948 0.698-163.328 3.77-171.287 4.561-11.776 17.175-25.135 29.37-31.139l10.147-4.98 327.354-1.024-1.071-8.425c-4.113-25.415-9.408-47.489-16.151-68.921l0.931 3.431c-2.886-8.844-10.38-26.484-16.617-39.238-39.238-80.012-103.331-138.054-186.508-168.96-34.9-13.38-75.27-21.13-117.451-21.13-73.077 0-140.722 23.261-195.934 62.783l1.018-0.693c-86.612 61.961-142.391 162.221-142.391 275.509 0 29.462 3.772 58.042 10.86 85.285l-0.519-2.348c8.425 32.908 22.342 65.908 40.169 95.139 40.727 66.746 108.823 119.808 185.018 144.244 18.527 5.784 40.9 10.778 63.837 14.017l2.351 0.272c0.698 0.14 1.536-72.983 1.815-162.537z" />
<glyph unicode="&#xe909;" glyph-name="Single" horiz-adv-x="922" d="M430.080 944.486c-56.556-6.986-106.642-30.437-146.434-65.341l0.309 0.265c-55.883-49.028-90.971-120.587-90.971-200.341 0-6.812 0.256-13.565 0.759-20.248l-0.054 0.89c7.987-124.723 102.042-226.867 227.174-246.733 7.322-1.178 24.832-2.099 39.936-2.099 45.363 0 80.23 8.038 119.859 27.597 83.103 42.191 140.56 124.3 147.255 220.395l0.047 0.84c5.069 79.462-22.477 152.678-78.336 208.282-28.267 28.714-63.191 50.791-102.275 63.735l-1.815 0.521c-25.536 8.807-54.963 13.892-85.578 13.892-10.526 0-20.913-0.601-31.126-1.771l1.248 0.116zM497.306 866.97c91.392-18.637 155.494-96.461 155.494-188.826 0-92.518-63.078-169.011-155.904-189.082-16.794-3.584-55.142-3.584-72.192 0.051-63.846 13.619-113.254 52.89-139.264 110.694-10.517 22.278-16.656 48.392-16.656 75.941 0 0.842 0.006 1.683 0.017 2.522l-0.001-0.127c0 0.004 0 0.009 0 0.013 0 98.193 73.496 179.22 168.479 191.072l0.942 0.096c5.993 0.53 12.966 0.832 20.010 0.832 13.799 0 27.328-1.159 40.494-3.385l-1.419 0.198zM229.632 303.974c-108.253-11.143-194.464-93.066-212.031-198.231l-0.193-1.398c-2.253-14.49-2.714-27.699-2.765-75.162l-0.051-57.6 4.096-6.912c2.678-4.45 6.302-8.074 10.613-10.674l0.139-0.078c5.734-3.328 8.55-3.84 20.48-3.84 17.203 0 20.838 0.973 28.467 7.885 9.626 8.755 10.701 14.541 10.701 58.88 0 77.926 5.018 103.014 27.494 137.779 24.883 38.502 66.662 65.997 110.746 72.96 10.445 1.638 56.883 2.048 233.472 2.048s223.027-0.41 233.472-2.048c62.566-9.882 116.326-59.136 132.147-121.088 4.198-16.333 6.093-44.083 6.093-88.781 0-45.261 1.024-50.995 10.701-59.75 7.629-6.912 11.264-7.885 28.467-7.885 11.93 0 14.746 0.512 20.48 3.84 4.45 2.678 8.074 6.302 10.674 10.613l0.078 0.139 4.096 6.912 0.512 45.312c0.768 71.782-2.867 101.581-16.64 136.243-17.212 42.858-44.876 78.457-79.913 104.767l-0.624 0.449c-35.584 26.726-74.394 41.37-120.678 45.67-21.299 1.946-438.989 1.894-460.032-0.051z" />
<glyph unicode="&#xe90a;" glyph-name="Search_2" d="M417.28 944.486c-40.635-4.481-77.702-13.134-112.938-25.652l3.473 1.076c-20.787-7.629-67.072-30.208-84.224-41.165-57.234-37.602-104.733-85.101-141.204-140.505l-1.132-1.831c-10.957-17.152-33.536-63.437-41.165-84.224-34.918-95.386-34.918-210.586 0-305.971 7.629-20.787 30.208-67.072 41.165-84.224 37.616-57.241 85.112-104.753 140.507-141.255l1.829-1.132c16.896-10.752 63.078-33.28 84.224-41.062 82.432-30.362 177.562-34.611 266.701-11.93 29.952 7.629 50.586 15.462 83.405 31.488 27.553 12.937 51.276 27.66 73.055 44.748l-0.811-0.613 19.302 14.438 101.837-101.734c70.4-70.298 103.834-102.502 108.237-104.346 13.978-5.837 27.187-2.458 39.782 10.086 12.544 12.595 15.923 25.805 10.086 39.782-1.843 4.403-34.048 37.837-104.346 108.237l-101.734 101.837 14.438 19.302c19.917 26.624 28.672 40.858 43.11 69.888 29.784 58.177 47.238 126.913 47.238 199.727 0 26.445-2.302 52.353-6.718 77.533l0.388-2.674c-5.453 30.075-12.496 56.237-21.445 81.497l1.119-3.621c-7.782 21.146-30.31 67.328-41.062 84.224-37.647 57.23-85.157 104.74-140.556 141.254l-1.831 1.134c-16.896 10.752-63.078 33.28-84.224 41.062-32.562 11.847-70.453 20.578-109.746 24.563l-2.024 0.166c-12.463 0.934-26.996 1.466-41.654 1.466-15.161 0-30.188-0.569-45.063-1.688l1.981 0.12zM515.43 866.918c162.202-24.474 288.307-151.142 313.395-314.829 4.147-26.88 4.147-78.899 0-105.779-10.392-66.846-36.692-126.169-74.907-175.853l0.667 0.902c-10.854-14.285-44.646-48.64-59.955-61.030-50.035-40.28-111.499-68.385-178.796-78.88l-2.145-0.275c-26.88-4.147-78.899-4.147-105.779 0-164.506 25.19-289.946 150.63-315.136 315.136-4.147 26.88-4.147 78.899 0 105.779 12.449 82.612 50.387 154.714 105.419 209.714l0.002 0.002c62.976 62.976 143.206 99.942 235.315 108.39 14.848 1.382 64.154-0.614 81.92-3.277zM443.904 790.682c-13.005-4.454-20.634-17.562-20.634-35.482 0-18.995 8.090-31.846 22.374-35.482 4.096-1.024 15.565-2.355 25.395-2.918 56.678-3.226 103.578-24.166 143.411-63.949 39.731-39.782 60.621-86.579 63.898-143.411 1.382-23.194 3.635-31.642 10.291-38.246 12.902-12.954 43.418-12.954 56.32 0 8.090 8.038 10.086 17.664 8.806 42.189-3.891 75.008-32.922 140.442-85.606 193.178-44.544 44.493-95.027 70.605-158.72 82.125-18.534 3.328-58.061 4.557-65.536 1.997z" />
<glyph unicode="&#xe90b;" glyph-name="Circle-Up-converted" d="M483.002 947.060c-28.113-2.42-47.988-4.98-66.56-8.611-199.873-40.092-354.801-195.019-394.355-391.692l-0.537-3.199c-6.609-33.792-8.611-56.227-8.611-95.558s2.001-61.766 8.611-95.558c30.775-153.917 128.839-280.122 261.537-348.617l2.794-1.311c51.712-26.298 103.145-42.124 164.678-50.548 29.417-4.003 93.463-4.003 122.88 0 122.275 16.756 226.537 70.749 307.479 159.232 70.051 76.614 112.454 168.495 127.116 275.363 4.003 29.417 4.003 93.463 0 122.88-12.474 91.089-44.265 169.379-96.908 238.918-79.938 105.554-198.989 177.866-335.199 195.324l-2.488 0.26c-19.456 2.42-75.683 4.375-90.438 3.119zM567.482 875.334c30.053-3.814 57.191-10.292 83.125-19.339l-2.834 0.861c159.511-53.295 272.384-192.186 292.678-360.215 2.653-21.969 2.653-75.311 0-97.28-7.967-63.894-28.37-121.67-58.75-172.825l1.127 2.049c-68.794-115.991-186.973-192.698-322.188-209.036-21.969-2.653-75.311-2.653-97.28 0-63.894 7.975-121.668 28.377-172.827 58.751l2.052-1.128c-112.035 67.268-190.224 181.083-208.002 314.016l-0.242 2.214c-3.77 28.486-3.77 80.71 0 109.196 21.94 164.981 134.312 299.087 284.905 352.073l3.025 0.927c62.883 21.69 126.929 28.16 195.212 19.735zM495.337 665.414c-4.934-2.42-9.821-6.004-10.845-8.052s-43.985-45.94-95.372-97.559c-51.433-51.619-94.767-96.349-96.256-99.328-5.679-11.357-2.7-24.576 8.145-36.073 12.288-13.079 27.369-15.825 40.401-7.308 4.189 2.7 36.399 33.839 71.587 69.12l64 64.186 0.884-151.459 0.838-151.459 3.724-6.004c6.191-9.914 12.847-12.8 29.556-12.8s23.366 2.886 29.556 12.8l3.724 6.004 0.838 151.459 0.884 151.459 64-64.186c35.188-35.281 67.398-66.42 71.587-69.12 13.033-8.518 28.113-5.772 40.401 7.308 10.845 11.497 13.824 24.716 8.145 36.073-1.489 2.979-44.823 47.709-96.256 99.328-51.386 51.619-94.348 95.511-95.372 97.559-2.7 5.26-18.897 12.521-27.834 12.428-6.018-0.417-11.578-1.987-16.591-4.49l0.254 0.115z" />
<glyph unicode="&#xe90c;" glyph-name="Timer" horiz-adv-x="931" d="M361.425 945.571c-6.896-1.917-12.471-6.536-15.62-12.614l-0.065-0.139c-3.025-5.167-3.631-8.285-3.631-19.363 0.047-14.336 2.048-20.015 9.542-26.996 6.423-5.911 14.895-7.121 50.083-7.121h32.675v-72.378l-16.663-1.908c-72.441-8.771-137.546-34.442-193.091-72.935l1.417 0.929c-89.148-61.829-153.25-154.359-177.219-262.013l-0.538-2.878c-6.889-32.349-8.611-50.409-8.611-89.972s1.722-57.623 8.611-89.972c35.188-165.888 168.262-297.891 333.638-331.031 34.397-6.889 46.592-7.959 88.157-7.866 32.815 0.093 43.38 0.698 61.859 3.537 109.807 16.83 204.108 73.096 269.816 153.616l0.614 0.776c84.806 103.517 115.991 243.479 83.503 374.877-19.985 78.769-59.616 146.47-113.41 199.938l-0.021 0.021c-67.491 67.444-149.923 108.451-244.922 121.856l-24.064 3.351v71.261l36.445 0.791c34.63 0.745 36.724 0.931 42.217 4.329 3.684 2.533 6.776 5.625 9.232 9.19l0.078 0.119c3.072 4.934 3.537 7.82 3.537 20.48s-0.465 15.546-3.537 20.48c-2.533 3.684-5.625 6.776-9.19 9.232l-0.119 0.078-5.772 3.584-104.727 0.279c-77.359 0.233-106.17-0.186-110.22-1.536zM142.476 850.804c-3.165-1.117-8.378-4.189-11.636-6.796-12.428-9.961-80.71-80.477-83.223-85.923-5.353-11.636-2.327-23.785 8.704-35.281 11.45-11.869 24.576-15.5 36.538-10.007 5.865 2.7 74.845 69.679 85.737 83.223 11.823 14.755 11.264 27.695-1.908 42.124-11.311 12.335-23.133 16.756-34.211 12.66zM780.381 851.549c-7.603-2.39-14.032-6.684-18.948-12.331l-0.042-0.050c-8.797-9.728-10.892-14.895-10.147-25.135 0.559-7.54 1.629-10.147 7.028-17.175 10.566-13.684 78.103-79.686 85.318-83.316 3.725-2.018 8.154-3.204 12.861-3.204 4.419 0 8.595 1.046 12.292 2.903l-0.158-0.072c6.842 3.491 16.989 13.545 20.806 20.666 1.663 3.758 2.631 8.142 2.631 12.751 0 4.398-0.882 8.591-2.478 12.41l0.079-0.213c-3.398 6.749-82.246 85.923-89.135 89.507-6.842 3.537-14.988 4.887-20.108 3.258zM519.727 735.791c50.57-7.6 95.992-24.439 136.349-48.818l-1.647 0.923c93.789-56.553 155.043-148.62 172.032-258.513 3.817-24.762 3.817-77.638 0-102.4-24.902-161.187-146.385-282.345-307.479-306.595-25.693-3.863-75.171-3.863-100.864 0-42.706 6.492-81.169 19.383-116.292 37.783l2.023-0.965c-105.937 53.993-177.664 156.672-193.862 277.551-2.513 18.804-2.513 67.724 0.047 86.854 15.919 120.413 87.878 223.558 193.583 277.411 38.395 20.385 83.284 34.299 130.884 38.98l1.491 0.119c18.432 1.908 62.511 0.698 83.735-2.327zM454.516 596.527c-6.887-1.96-12.454-6.585-15.62-12.66l-0.066-0.14-3.631-6.191-0.465-100.073c-0.372-69.911 0-102.493 1.21-108.125 1.092-5.523 3.771-10.295 7.534-13.958l0.006-0.006c6.004-6.144 123.997-77.638 133.539-80.896 7.168-2.467 16.477-2.281 21.644 0.419 5.958 3.072 15.453 13.917 18.944 21.597 3.491 7.633 3.863 19.689 0.791 25.507-4.189 8.052-12.241 13.731-63.441 44.544l-51.479 31.046-1.583 181.527-3.537 5.725c-5.632 9.030-12.753 12.567-26.531 13.126-1.105 0.072-2.396 0.113-3.696 0.113-4.83 0-9.527-0.567-14.029-1.639l0.41 0.082z" />
<glyph unicode="&#xe90d;" glyph-name="swap" d="M987.207 348.94c0-11.363-4.132-21.694-12.397-28.924l-192.149-192.149c-8.264-8.264-18.595-11.363-28.924-11.363s-21.694 5.165-28.924 12.397c-16.529 16.529-16.529 43.389 0 59.918l120.868 123.967h-403.926c-22.727 0-41.323 18.595-41.323 41.323s18.595 41.323 41.323 41.323h403.926l-120.868 118.802c-16.529 16.529-16.529 40.29 0 55.785 16.529 16.529 42.356 16.529 58.884 0l192.149-192.149c7.231-7.231 11.363-17.562 11.363-28.924zM178.322 498.733h403.926c22.727 0 41.323 18.595 41.323 41.323s-18.595 41.323-41.323 41.323h-403.926l120.868 123.967c16.529 16.529 16.529 43.389 0 59.918s-42.356 16.529-58.884 1.033l-191.116-192.149c-8.264-7.231-12.397-17.562-12.397-28.924s4.132-21.694 12.397-28.924l192.149-192.149c8.264-8.264 18.595-12.397 28.924-12.397s21.694 4.132 28.924 12.397c16.529 16.529 16.529 40.29 0 55.785l-120.868 118.802z" />
<glyph unicode="&#xe90e;" glyph-name="link" d="M392.533 379.733c-12.8 17.067-8.533 46.933 8.533 59.733s46.933 8.533 59.733-8.533c29.867-38.4 76.8-64 123.733-68.267 51.2-4.267 98.133 12.8 132.267 51.2l128 128c64 68.267 64 174.933 0 238.933s-170.667 68.267-238.933 4.267l-72.533-72.533c-17.067-17.067-42.667-17.067-59.733 0s-17.067 42.667 0 59.733l72.533 72.533c102.4 98.133 260.267 93.867 358.4-4.267s98.133-260.267 4.267-358.4l-128-128c-51.2-51.2-123.733-81.067-200.533-72.533s-145.067 38.4-187.733 98.133zM631.467 516.267c12.8-17.067 8.533-46.933-8.533-59.733s-46.933-8.533-59.733 8.533c-29.867 38.4-76.8 64-123.733 68.267-51.2 4.267-98.133-12.8-132.267-51.2l-128-128c-64-68.267-64-174.933 0-238.933s170.667-68.267 238.933-4.267l72.533 72.533c17.067 17.067 42.667 17.067 59.733 0s17.067-42.667 0-59.733l-72.533-72.533c-102.4-98.133-260.267-93.867-358.4 4.267s-98.133 260.267-4.267 358.4l128 128c55.467 55.467 128 81.067 200.533 76.8 76.8-4.267 145.067-42.667 187.733-102.4z" />
<glyph unicode="&#xe90f;" glyph-name="mail" d="M817.362 785.066c63.024 0 114.477-52.387 114.477-116.623v-466.49c0-64.236-51.453-116.623-114.477-116.623h-610.68c-63.069 0-114.522 52.387-114.522 116.623v466.49c0 64.236 51.453 116.623 114.522 116.623h610.634zM855.476 593.806l-321.551-229.326c-13.109-9.328-30.602-9.328-43.756 0l-321.692 229.326v-391.851c0-21.272 17.26-38.859 38.205-38.859h610.634c20.944 0 38.205 17.586 38.205 38.859v391.851zM817.362 707.301h-610.68c-14.835 0-27.804-8.817-34.101-21.505l339.418-242.015 339.464 242.015c-6.345 12.69-19.313 21.505-34.101 21.505zM273.39 318.576c22.811 0 41.284-17.96 41.284-40.119 0-22.111-18.472-40.071-41.284-40.071s-41.284 17.96-41.284 40.119c0 22.111 18.472 40.071 41.284 40.071z" />
<glyph unicode="&#xe910;" glyph-name="phone-recall" d="M891.733 238.933c0 21.333-17.067 42.667-38.4 42.667-42.667 4.267-89.6 17.067-128 34.133-17.067 4.267-34.133 0-46.933-8.533l-55.467-55.467c-12.8-12.8-34.133-17.067-51.2-8.533-115.2 64-209.067 157.867-273.067 273.067-4.267 17.067 0 38.4 12.8 51.2l55.467 55.467c12.8 12.8 17.067 29.867 8.533 46.933-17.067 42.667-25.6 85.333-34.133 128-4.267 17.067-21.333 34.133-42.667 34.133h-128c-12.8 0-21.333-4.267-29.867-12.8s-12.8-21.333-12.8-34.133c12.8-123.733 55.467-243.2 123.733-349.867 64-98.133 145.067-179.2 243.2-243.2 106.667-68.267 226.133-110.933 349.867-123.733 12.8 0 25.6 4.267 34.133 12.8s12.8 21.333 12.8 29.867v128zM567.467 311.467l51.2 8.533c-8.533 4.267-17.067 12.8-25.6 17.067l-25.6-25.6zM640 661.333l55.467-46.933-38.4-51.2-157.867 128 157.867 128 38.4-51.2-55.467-42.667h85.333c85.333 0 136.533-59.733 128-136.533-8.533-72.533-68.267-128-149.333-128v64c46.933 0 81.067 29.867 85.333 72.533 4.267 34.133-17.067 64-64 64h-85.333zM977.067 110.933c0-34.133-12.8-72.533-42.667-93.867-25.6-25.6-64-38.4-98.133-34.133-136.533 17.067-268.8 64-388.267 136.533-106.667 68.267-200.533 162.133-268.8 268.8-72.533 115.2-119.467 251.733-136.533 388.267-4.267 38.4 8.533 72.533 34.133 98.133s59.733 42.667 93.867 42.667h128c64 0 119.467-46.933 128-110.933 4.267-38.4 12.8-76.8 25.6-110.933 17.067-46.933 8.533-98.133-25.6-132.267l-29.867-29.867c51.2-76.8 115.2-145.067 196.267-196.267l29.867 29.867c34.133 34.133 89.6 46.933 136.533 29.867 34.133-12.8 72.533-21.333 110.933-25.6 64-8.533 110.933-64 110.933-128l-4.267-132.267z" />
<glyph unicode="&#xe911;" glyph-name="phone" d="M891.733 238.933c0 21.333-17.067 42.667-38.4 42.667-42.667 4.267-89.6 17.067-128 34.133-17.067 4.267-34.133 0-46.933-8.533l-55.467-55.467c-12.8-12.8-34.133-17.067-51.2-8.533-115.2 64-209.067 157.867-273.067 273.067-4.267 17.067 0 38.4 12.8 51.2l55.467 55.467c12.8 12.8 17.067 29.867 8.533 46.933-17.067 42.667-25.6 85.333-34.133 128-4.267 17.067-21.333 34.133-42.667 34.133h-128c-12.8 0-21.333-4.267-29.867-12.8s-12.8-21.333-12.8-34.133c12.8-123.733 55.467-243.2 123.733-349.867 64-98.133 145.067-179.2 243.2-243.2 106.667-68.267 226.133-110.933 349.867-123.733 12.8 0 25.6 4.267 34.133 12.8s12.8 21.333 12.8 29.867v128zM567.467 311.467l51.2 8.533c-8.533 4.267-17.067 12.8-25.6 17.067l-25.6-25.6zM977.067 110.933c0-34.133-12.8-72.533-42.667-93.867-25.6-25.6-64-38.4-98.133-34.133-136.533 17.067-268.8 64-388.267 136.533-106.667 68.267-200.533 162.133-268.8 268.8-72.533 115.2-119.467 251.733-136.533 388.267-4.267 38.4 8.533 72.533 34.133 98.133s59.733 42.667 93.867 42.667h128c64 0 119.467-46.933 128-110.933 4.267-38.4 12.8-76.8 25.6-110.933 17.067-46.933 8.533-98.133-25.6-132.267l-29.867-29.867c51.2-76.8 115.2-145.067 196.267-196.267l29.867 29.867c34.133 34.133 89.6 46.933 136.533 29.867 34.133-12.8 72.533-21.333 110.933-25.6 64-8.533 110.933-64 110.933-128l-4.267-132.267z" />
<glyph unicode="&#xe912;" glyph-name="chevron-down" d="M512 379.733l-226.133 226.133c-17.067 17.067-42.667 17.067-59.733 0s-17.067-42.667 0-59.733l256-256c17.067-17.067 42.667-17.067 59.733 0l256 256c17.067 17.067 17.067 42.667 0 59.733s-42.667 17.067-59.733 0l-226.133-226.133z" />
<glyph unicode="&#xe913;" glyph-name="chevron-up" d="M512 516.267l226.133-226.133c17.067-17.067 42.667-17.067 59.733 0s17.067 42.667 0 59.733l-256 256c-17.067 17.067-42.667 17.067-59.733 0l-256-256c-17.067-17.067-17.067-42.667 0-59.733s42.667-17.067 59.733 0l226.133 226.133z" />
<glyph unicode="&#xe914;" glyph-name="clock" d="M512 895.997c123.128 0 238.823-47.869 325.833-134.964 83.371-82.94 134.966-197.753 134.966-324.615 0-0.428 0-0.856-0.002-1.285v0.066c-0.051-95.399-29.2-183.981-79.049-257.361l1.026 1.603c-6.639-8.852-17.11-14.519-28.905-14.519-19.9 0-36.030 16.133-36.030 36.030 0 6.794 1.88 13.148 5.148 18.57l-0.091-0.162c43.203 64.544 65.926 139.114 65.926 215.84 0 214.372-174.451 388.822-388.822 388.822-214.642-0.245-388.575-174.179-388.822-388.799v-0.024c0-214.372 174.451-388.822 388.822-388.822 71.11 0 140.667 19.355 201.151 55.99 5.518 3.61 12.279 5.758 19.54 5.758 19.9 0 36.030-16.133 36.030-36.030 0-13.359-7.27-25.020-18.069-31.241l-0.174-0.094c-67.875-41.676-150.074-66.358-238.036-66.358-0.155 0-0.311 0-0.467 0h0.025c-0.362-0.002-0.79-0.002-1.217-0.002-126.862 0-241.675 51.595-324.596 134.947l-0.021 0.021c-83.371 82.94-134.966 197.753-134.966 324.615 0 0.428 0 0.856 0.002 1.285v-0.066c0 123.128 47.869 238.823 134.964 325.833 82.94 83.371 197.753 134.966 324.615 134.966 0.428 0 0.856 0 1.285-0.002h-0.066zM512 759.218c19.873 0 36.030-16.157 36.030-36.030v-287.988c0-9.505-3.802-18.663-10.541-25.49l-142.57-142.57c-6.502-6.569-15.521-10.637-25.49-10.637s-18.987 4.068-25.487 10.634l-0.003 0.003c-6.527 6.521-10.564 15.534-10.564 25.49s4.039 18.968 10.564 25.49v0l132.026 132.026v273.039c0 19.873 16.157 36.030 36.030 36.030z" />
<glyph unicode="&#xe915;" glyph-name="arrow-right" d="M750.933 490.667l-183.467 183.467c-17.067 17.067-17.067 42.667 0 59.733s42.667 17.067 59.733 0l256-256c17.067-17.067 17.067-42.667 0-59.733l-256-256c-17.067-17.067-42.667-17.067-59.733 0s-17.067 42.667 0 59.733l183.467 183.467h-580.267c-25.6 0-42.667 17.067-42.667 42.667s17.067 42.667 42.667 42.667h580.267z" />
<glyph unicode="&#xe916;" glyph-name="arrow-left" d="M273.067 405.333l183.467-183.467c17.067-17.067 17.067-42.667 0-59.733s-42.667-17.067-59.733 0l-256 256c-17.067 17.067-17.067 42.667 0 59.733l256 256c17.067 17.067 42.667 17.067 59.733 0s17.067-42.667 0-59.733l-183.467-183.467h580.267c25.6 0 42.667-17.067 42.667-42.667s-17.067-42.667-42.667-42.667h-580.267z" />
<glyph unicode="&#xe917;" glyph-name="edit-2" d="M597.333 814.933l-426.667-426.667v-110.933h110.933l426.667 426.667-110.933 110.933zM627.2 904.533l170.667-170.667c17.067-17.067 17.067-42.667 0-59.733l-469.333-469.333c-8.533-8.533-17.067-12.8-29.867-12.8h-170.667c-25.6 0-42.667 17.067-42.667 42.667v170.667c0 12.8 4.267 21.333 12.8 29.867l469.333 469.333c17.067 17.067 42.667 17.067 59.733 0zM128-21.333c-25.6 0-42.667 17.067-42.667 42.667s17.067 42.667 42.667 42.667h768c25.6 0 42.667-17.067 42.667-42.667s-17.067-42.667-42.667-42.667h-768z" />
<glyph unicode="&#xe918;" glyph-name="more-horizontal" d="M512 320c-72.533 0-128 55.467-128 128s55.467 128 128 128 128-55.467 128-128-55.467-128-128-128zM853.333 320c-72.533 0-128 55.467-128 128s55.467 128 128 128 128-55.467 128-128-55.467-128-128-128zM170.667 320c-72.533 0-128 55.467-128 128s55.467 128 128 128 128-55.467 128-128-55.467-128-128-128zM170.667 405.333c25.6 0 42.667 17.067 42.667 42.667s-17.067 42.667-42.667 42.667-42.667-17.067-42.667-42.667 17.067-42.667 42.667-42.667zM853.333 405.333c25.6 0 42.667 17.067 42.667 42.667s-17.067 42.667-42.667 42.667-42.667-17.067-42.667-42.667 17.067-42.667 42.667-42.667zM512 405.333c25.6 0 42.667 17.067 42.667 42.667s-17.067 42.667-42.667 42.667-42.667-17.067-42.667-42.667 17.067-42.667 42.667-42.667z" />
<glyph unicode="&#xe919;" glyph-name="edit" d="M722.111 504.262l-140.895 140.895 101.841 101.947 140.843-140.895-101.789-101.947zM359.291 141.125l-155.584-14.115 13.802 154.487 293.656 293.656 140.946-140.946-292.765-293.081zM899.131 678.929l-143.195 143.195c-38.738 38.686-105.293 40.464-141.992 3.659l-470.31-470.362c-17.044-16.99-27.604-39.577-29.798-63.467l-19.867-218.006c-1.307-15.422 4.181-30.688 15.16-41.667 9.882-9.882 23.213-15.318 36.96-15.318 1.568 0 3.136 0.052 4.704 0.21l218.006 19.867c23.997 2.142 46.529 12.65 63.519 29.643l470.362 470.362c38.060 38.164 36.438 101.841-3.555 141.888z" />
<glyph unicode="&#xe91a;" glyph-name="notification" horiz-adv-x="819" d="M614.4 243.2h-409.6v307.2c0 138.24 102.4 204.8 204.8 204.8v0c102.4 0 204.8-66.56 204.8-204.8v-307.2zM460.8 89.6c0-30.72-20.48-51.2-51.2-51.2s-51.2 20.48-51.2 51.2v51.2h102.4v-51.2zM716.8 345.6v204.8c0 184.32-122.88 281.6-256 302.080v107.52h-102.4v-107.52c-133.12-20.48-256-117.76-256-302.080v-204.8c0-56.32-46.080-102.4-102.4-102.4v-102.4h256v-51.2c0-87.040 66.56-153.6 153.6-153.6s153.6 66.56 153.6 153.6v51.2h256v102.4c-56.32 0-102.4 46.080-102.4 102.4v0z" />
<glyph unicode="&#xe91b;" glyph-name="trash" d="M596.613 895.995c59.557 0 107.999-48.442 107.999-107.999v-41.413h217.785c19.882 0 36-16.118 36-36s-16.118-36-36-36v0h-37.267l-31.162-404.176c-1.494-18.656-17.001-33.229-35.914-33.229-19.895 0-36.022 16.127-36.022 36.022 0 0.982 0.039 1.957 0.117 2.92l-0.009-0.127 30.758 398.588h-558.6l43.43-562.92c3.456-37.21 34.272-65.259 71.653-65.259h328.432c37.498 0 68.314 27.706 71.711 64.512 1.094 18.998 16.767 33.989 35.943 33.989 19.882 0 36-16.118 36-36 0-1.607-0.105-3.187-0.309-4.737l0.020 0.182c-6.829-73.144-67.912-129.949-142.263-129.949-0.407 0-0.816 0.001-1.221 0.006h-328.256c-0.042 0-0.090 0-0.138 0-37.429 0-71.513 14.314-97.080 37.766l0.105-0.096c-25.746 23.522-42.861 56.114-46.268 92.685l-0.044 0.569-0.058 0.518-43.892 568.737h-37.267c-19.882 0-36 16.118-36 36s16.118 36 36 36v0h217.785v41.413c0 59.557 48.442 107.999 107.999 107.999zM370.018 602.584c0.474 0.023 1.030 0.035 1.591 0.035 19.327 0 35.097-15.231 35.962-34.344l0.003-0.079 17.972-412.124c0.020-0.458 0.032-0.994 0.032-1.532 0-19.326-15.229-35.095-34.341-35.962l-0.079-0.003h-1.556c-19.305 0.011-35.056 15.219-35.939 34.307l-0.003 0.080-18.028 412.066c-0.023 0.474-0.035 1.030-0.035 1.591 0 19.327 15.231 35.097 34.344 35.962l0.079 0.003zM697.182 602.584c19.192-0.868 34.423-16.638 34.423-35.965 0-0.559-0.011-1.115-0.038-1.668l0.003 0.079-18.028-412.066c-0.855-19.193-16.617-34.431-35.94-34.444h-1.557c-19.192 0.868-34.423 16.638-34.423 35.965 0 0.559 0.011 1.115 0.038 1.668l-0.003-0.079 17.972 412.124c0.868 19.192 16.638 34.423 35.965 34.423 0.559 0 1.115-0.011 1.668-0.038l-0.079 0.003zM533.6 602.584c19.872 0 36-16.128 36-36v-412.066c0-19.882-16.118-36-36-36s-36 16.118-36 36v0 412.066c0 19.872 16.128 36 36 36zM596.613 823.996h-126.084c-19.869-0.032-35.967-16.131-36-35.996v-41.416h198.027v41.413c-0.032 19.869-16.131 35.967-35.996 36h-0.003z" />
<glyph unicode="&#xe91c;" glyph-name="check" d="M200.533 435.2c-17.067 17.067-42.667 17.067-59.733 0s-17.067-42.667 0-59.733l213.333-213.333c17.067-17.067 42.667-17.067 59.733 0l469.333 469.333c17.067 17.067 17.067 42.667 0 59.733s-42.667 17.067-59.733 0l-439.467-439.467-183.467 183.467z" />
<glyph unicode="&#xe91d;" glyph-name="close" d="M571.733 448l226.133-226.133c17.067-17.067 17.067-42.667 0-59.733s-42.667-17.067-59.733 0l-226.133 226.133-226.133-226.133c-17.067-17.067-42.667-17.067-59.733 0s-17.067 42.667 0 59.733l226.133 226.133-226.133 226.133c-17.067 17.067-17.067 42.667 0 59.733s42.667 17.067 59.733 0l226.133-226.133 226.133 226.133c17.067 17.067 42.667 17.067 59.733 0s17.067-42.667 0-59.733l-226.133-226.133z" />
<glyph unicode="&#xe91e;" glyph-name="info" d="M512-21.333c-260.267 0-469.333 209.067-469.333 469.333s209.067 469.333 469.333 469.333 469.333-209.067 469.333-469.333-209.067-469.333-469.333-469.333zM512 64c213.333 0 384 170.667 384 384s-170.667 384-384 384-384-170.667-384-384 170.667-384 384-384zM554.667 277.333c0-25.6-17.067-42.667-42.667-42.667s-42.667 17.067-42.667 42.667v170.667c0 25.6 17.067 42.667 42.667 42.667s42.667-17.067 42.667-42.667v-170.667zM482.133 546.133c-17.067 17.067-17.067 42.667 0 59.733s42.667 17.067 59.733 0c17.067-17.067 17.067-42.667 0-59.733s-42.667-17.067-59.733 0z" />
<glyph unicode="&#xe91f;" glyph-name="credit-card" d="M938.667 576v128c0 25.6-17.067 42.667-42.667 42.667h-768c-25.6 0-42.667-17.067-42.667-42.667v-128h853.333zM938.667 490.667h-853.333v-298.667c0-25.6 17.067-42.667 42.667-42.667h768c25.6 0 42.667 17.067 42.667 42.667v298.667zM128 832h768c72.533 0 128-55.467 128-128v-512c0-72.533-55.467-128-128-128h-768c-72.533 0-128 55.467-128 128v512c0 72.533 55.467 128 128 128z" />
<glyph unicode="&#xe920;" glyph-name="repeat" d="M230.4 192h494.933c72.533 0 128 55.467 128 128v85.333c0 25.6 17.067 42.667 42.667 42.667s42.667-17.067 42.667-42.667v-85.333c0-119.467-93.867-213.333-213.333-213.333h-494.933l98.133-98.133c17.067-17.067 17.067-42.667 0-59.733s-42.667-17.067-59.733 0l-170.667 170.667c-17.067 17.067-17.067 42.667 0 59.733l170.667 170.667c17.067 17.067 42.667 17.067 59.733 0s17.067-42.667 0-59.733l-98.133-98.133zM793.6 704h-494.933c-72.533 0-128-55.467-128-128v-85.333c0-25.6-17.067-42.667-42.667-42.667s-42.667 17.067-42.667 42.667v85.333c0 119.467 93.867 213.333 213.333 213.333h494.933l-98.133 98.133c-17.067 17.067-17.067 42.667 0 59.733s42.667 17.067 59.733 0l170.667-170.667c17.067-17.067 17.067-42.667 0-59.733l-170.667-170.667c-17.067-17.067-42.667-17.067-59.733 0s-17.067 42.667 0 59.733l98.133 98.133z" />
<glyph unicode="&#xe921;" glyph-name="shield" horiz-adv-x="866" d="M865.452 684.374l-0.031 0.791c-0.442 9.758-0.737 20.081-0.916 31.567-0.831 56.012-45.429 102.343-101.539 105.474-116.988 6.518-207.488 44.603-284.815 119.851l-0.66 0.628c-25.222 23.088-63.268 23.088-88.498 0l-0.66-0.628c-77.327-75.248-167.827-113.333-284.815-119.859-56.103-3.123-100.709-49.455-101.539-105.474-0.171-11.408-0.474-21.732-0.916-31.559l-0.047-1.837c-2.275-119.099-5.1-267.324 44.567-401.862 27.31-73.985 68.671-138.297 122.926-191.162 61.793-60.204 142.73-108.001 240.558-142.056 3.183-1.108 6.49-2.007 9.859-2.682 4.751-0.946 9.533-1.418 14.315-1.418s9.572 0.473 14.315 1.418c3.369 0.674 6.699 1.581 9.898 2.697 97.712 34.117 178.563 81.936 240.302 142.133 54.232 52.88 95.593 117.208 122.926 191.208 49.854 134.941 47.036 283.445 44.769 402.768zM764.666 302.229c-52.384-141.8-159.319-239.183-326.913-297.697-0.598-0.202-1.234-0.38-1.894-0.512-1.731-0.341-3.493-0.341-5.248 0.008-0.652 0.132-1.289 0.302-1.879 0.504-167.773 58.406-274.777 155.735-327.123 297.542-45.778 124.013-43.185 260.077-40.895 380.114l0.016 0.667c0.466 10.316 0.776 21.12 0.947 32.993 0.373 24.871 20.215 45.448 45.173 46.835 66.202 3.689 124.362 16.462 177.803 39.046 53.37 22.553 100.771 54.345 144.895 97.189 2.243 1.891 5.155 1.899 7.39 0 44.132-42.844 91.533-74.636 144.895-97.189 53.44-22.584 111.6-35.357 177.81-39.046 24.958-1.387 44.8-21.964 45.165-46.843 0.179-11.935 0.489-22.739 0.955-32.985 2.282-120.176 4.813-256.349-41.097-380.626zM433.231 720.976c-140.039 0-253.963-113.93-253.963-253.959 0-140.037 113.924-253.967 253.963-253.967 140.031 0 253.963 113.93 253.963 253.967 0 140.029-113.931 253.959-253.963 253.959zM433.231 272.853c-107.066 0-194.167 87.099-194.167 194.164s87.101 194.164 194.167 194.164c107.059 0 194.159-87.099 194.159-194.164s-87.101-194.164-194.159-194.164zM489.403 533.809l-111.861-106.314-30.361 28.856c-11.074 10.525-29.027 10.525-40.101 0-11.067-10.525-11.067-27.587 0-38.105l50.415-47.915c5.537-5.262 12.792-7.89 20.047-7.89s14.51 2.628 20.047 7.89l131.915 125.373c11.067 10.525 11.067 27.587 0 38.105-11.074 10.532-29.027 10.532-40.101 0z" />
<glyph unicode="&#xe922;" glyph-name="antenna" horiz-adv-x="987" d="M870.4 916.114v0c-3.657 7.314-14.629 7.314-21.943 3.657s-7.314-14.629-3.657-21.943c98.743-138.971 98.743-321.829 0-460.8-3.657-7.314-3.657-18.286 3.657-21.943 0 0 0 0 0 0 7.314-3.657 18.286-3.657 21.943 3.657 106.057 149.943 106.057 347.429 0 497.371zM859.429 393.143c-7.314 0-14.629 3.657-21.943 7.314-14.629 10.971-18.286 32.914-7.314 47.543 95.086 131.657 95.086 307.2 0 438.857-10.971 14.629-7.314 36.571 7.314 47.543s36.571 7.314 47.543-7.314v0c109.714-153.6 109.714-365.714 0-519.314-7.314-10.971-18.286-14.629-25.6-14.629zM138.971 919.771c0 0 0 0 0 0-7.314 3.657-18.286 3.657-21.943-3.657-106.057-149.943-106.057-351.086 0-497.371 3.657-7.314 14.629-7.314 21.943-3.657s7.314 14.629 3.657 21.943c-98.743 138.971-98.743 321.829 0 460.8 7.314 7.314 3.657 18.286-3.657 21.943zM128 393.143c0 0-3.657 0-3.657 0-10.971 0-18.286 7.314-21.943 14.629-109.714 157.257-109.714 365.714 0 519.314 10.971 14.629 32.914 18.286 47.543 7.314v0c14.629-10.971 18.286-32.914 7.314-47.543-95.086-131.657-95.086-307.2 0-438.857 10.971-14.629 7.314-36.571-7.314-47.543-7.314-3.657-14.629-7.314-21.943-7.314zM252.343 861.257c3.657 7.314 3.657 18.286-3.657 21.943v0c-7.314 7.314-14.629 3.657-18.286-3.657-65.829-113.371-65.829-274.286 0-387.657 3.657-7.314 10.971-7.314 18.286-3.657 7.314 7.314 7.314 14.629 3.657 21.943-58.514 102.4-58.514 248.686 0 351.086zM245.029 466.286c-3.657 0-3.657 0 0 0-10.971 0-21.943 7.314-25.6 14.629-69.486 120.686-69.486 288.914 0 409.6 3.657 7.314 14.629 14.629 21.943 14.629s18.286-3.657 25.6-7.314c10.971-10.971 14.629-29.257 3.657-43.886v0c-58.514-98.743-58.514-234.057 0-329.143 7.314-14.629 7.314-32.914-3.657-43.886-7.314-10.971-14.629-14.629-21.943-14.629zM735.086 883.2v0c-3.657-7.314-7.314-14.629-3.657-21.943 58.514-102.4 58.514-245.029 0-347.429-3.657-7.314-3.657-18.286 3.657-21.943 7.314-7.314 14.629-3.657 18.286 3.657 65.829 113.371 65.829 274.286 0 387.657-3.657 3.657-10.971 7.314-18.286 0zM742.4 466.286c-7.314 0-14.629 3.657-21.943 7.314-10.971 10.971-14.629 32.914-3.657 43.886 58.514 98.743 58.514 234.057 0 329.143-7.314 14.629-7.314 32.914 3.657 43.886v0c7.314 7.314 14.629 10.971 25.6 7.314 10.971 0 18.286-7.314 21.943-14.629 69.486-120.686 69.486-288.914 0-409.6-3.657 0-10.971-7.314-25.6-7.314 3.657 0 3.657 0 0 0zM625.371 784.457c54.857-65.829 54.857-168.229 0-234.057-7.314-7.314-3.657-18.286 0-25.6 0 0 0 0 0 0 7.314-7.314 14.629-7.314 21.943 0 0 0 0 0 0 0 62.171 80.457 62.171 201.143 0 281.6-7.314 7.314-14.629 7.314-21.943 0-3.657-3.657-3.657-14.629 0-21.943 0 0 0 0 0 0zM636.343 502.857c-7.314 0-18.286 3.657-21.943 10.971-10.971 14.629-10.971 32.914 0 47.543 47.543 58.514 47.543 153.6 0 212.114l-3.657 3.657c-7.314 14.629-7.314 32.914 3.657 43.886 7.314 7.314 14.629 10.971 25.6 10.971s18.286-3.657 25.6-10.971c69.486-84.114 69.486-219.429 0-303.543-10.971-10.971-18.286-14.629-29.257-14.629 0 0 0 0 0 0zM351.086 521.143c7.314 0 14.629 7.314 14.629 18.286 0 3.657 0 7.314-3.657 10.971-54.857 65.829-54.857 168.229 0 234.057 7.314 7.314 3.657 18.286 0 25.6-7.314 7.314-14.629 7.314-21.943 0 0 0 0 0 0 0-62.171-80.457-62.171-201.143 0-281.6 3.657-3.657 7.314-7.314 10.971-7.314zM351.086 502.857c-10.971 0-18.286 3.657-25.6 10.971-69.486 84.114-69.486 219.429 0 303.543v0c7.314 7.314 14.629 10.971 25.6 10.971 7.314 0 18.286-3.657 25.6-10.971 10.971-14.629 10.971-32.914 0-47.543-47.543-58.514-47.543-153.6 0-212.114 3.657-7.314 7.314-14.629 7.314-21.943 0-18.286-14.629-32.914-32.914-32.914zM694.857-9.143l-149.943 607.086c32.914 29.257 36.571 80.457 7.314 113.371s-76.8 36.571-109.714 10.971c-32.914-29.257-36.571-80.457-7.314-113.371 3.657-3.657 7.314-7.314 7.314-10.971l-149.943-607.086c-3.657-7.314 3.657-18.286 10.971-18.286 0 0 0 0 0 0s3.657 0 3.657 0c7.314 0 14.629 3.657 14.629 10.971l3.657 21.943c0 0 0 0 3.657 0l288.914 157.257 43.886-179.2c0-7.314 7.314-10.971 14.629-10.971 0 0 3.657 0 3.657 0 10.971 3.657 14.629 10.971 14.629 18.286 0 0 0 0 0 0zM544.914 466.286l-84.114 76.8 10.971 43.886c7.314-3.657 14.629-3.657 21.943-3.657s14.629 0 21.943 3.657l29.257-120.686zM493.714 707.657c25.6 0 47.543-21.943 47.543-47.543s-21.943-47.543-47.543-47.543-47.543 21.943-47.543 47.543 21.943 47.543 47.543 47.543zM453.486 506.514l91.429-84.114-138.971-95.086 47.543 179.2zM340.114 45.714l54.857 223.086 190.171-91.429-245.029-131.657zM416.914 294.4l146.286 98.743 47.543-193.829-193.829 95.086zM680.229-45.714c-14.629 0-29.257 10.971-32.914 25.6l-40.229 157.257-263.314-142.629-3.657-10.971c-3.657-18.286-21.943-29.257-40.229-25.6s-29.257 21.943-25.6 40.229l146.286 596.114c0 0-3.657 3.657-3.657 3.657-32.914 40.229-29.257 102.4 10.971 138.971 18.286 18.286 43.886 25.6 69.486 21.943s47.543-14.629 65.829-32.914c32.914-36.571 29.257-95.086-3.657-131.657l149.943-596.114c3.657-18.286-7.314-36.571-25.6-40.229 0-3.657 0-3.657-3.657-3.657zM405.943 243.2l-40.229-160.914 175.543 95.086-135.314 65.829zM453.486 298.057l131.657-62.171-32.914 131.657-98.743-69.486zM464.457 473.6l-25.6-102.4 80.457 54.857-54.857 47.543zM482.743 546.743l32.914-29.257-10.971 43.886c-7.314 0-10.971 0-18.286 0l-3.657-14.629zM493.714 689.371c-14.629 0-29.257-14.629-29.257-29.257s10.971-29.257 29.257-29.257c14.629 0 29.257 14.629 29.257 29.257s-14.629 29.257-29.257 29.257z" />
<glyph unicode="&#xe923;" glyph-name="link-circle" d="M512-54.4c-278.4 0-505.6 227.2-505.6 505.6s227.2 505.6 505.6 505.6 505.6-227.2 505.6-505.6-227.2-505.6-505.6-505.6zM512 905.6c-252.8 0-457.6-204.8-457.6-457.6s204.8-457.6 457.6-457.6 457.6 204.8 457.6 457.6-204.8 457.6-457.6 457.6zM576 358.4l25.6 25.6c6.4 6.4 6.4 19.2 0 25.6l-128 128c-6.4 6.4-19.2 6.4-25.6 0l-25.6-25.6c-6.4-6.4-6.4-19.2 0-25.6l128-128c6.4-9.6 16-9.6 25.6 0zM355.2 489.6c-16 16-25.6 35.2-25.6 57.6 0 44.8 38.4 83.2 83.2 83.2 22.4 0 41.6-9.6 57.6-25.6l48-48c6.4-6.4 19.2-6.4 25.6 0l25.6 25.6c6.4 6.4 6.4 19.2 0 25.6l-48 48c-28.8 28.8-70.4 48-112 48-86.4 0-156.8-70.4-156.8-156.8 0-41.6 16-83.2 48-112l48-48c6.4-6.4 19.2-6.4 25.6 0l25.6 25.6c6.4 6.4 6.4 19.2 0 25.6l-44.8 51.2zM720 460.8l-48 48c-6.4 6.4-19.2 6.4-25.6 0l-25.6-25.6c-6.4-6.4-6.4-19.2 0-25.6l48-48c16-16 25.6-35.2 25.6-57.6 0-44.8-38.4-83.2-83.2-83.2-22.4 0-41.6 9.6-57.6 25.6l-48 48c-6.4 6.4-19.2 6.4-25.6 0l-25.6-25.6c-6.4-6.4-6.4-19.2 0-25.6l48-48c28.8-28.8 70.4-48 112-48 86.4 0 156.8 70.4 156.8 156.8-6.4 38.4-22.4 76.8-51.2 108.8z" />
<glyph unicode="&#xe924;" glyph-name="laptop" d="M851.022 704h-678.044c-12.364 0-22.39-10.248-22.39-22.892v-345.746c0-12.644 10.026-22.892 22.39-22.892s22.39 10.248 22.39 22.892v322.856h633.264v-322.854c0-12.644 10.026-22.892 22.39-22.892s22.39 10.248 22.39 22.892v345.746c-0.002 12.642-10.028 22.89-22.39 22.89zM1004.168 259.786h-40.59v467.304c0 37.089-29.884 67.263-66.616 67.263h-769.922c-36.734 0-66.616-30.174-66.616-67.263v-467.304h-40.59c-10.954 0-19.834-8.964-19.834-20.027v-39.314c0-54.478 43.894-98.798 97.848-98.798h828.304c53.954 0 97.848 44.32 97.848 98.798v39.314c0.002 11.062-8.876 20.027-19.832 20.027zM104.498 727.090c0 12.549 10.114 22.761 22.542 22.761h769.918c12.432 0 22.542-10.21 22.542-22.761v-467.304h-298.401c-1.406 0.046-2.856-0.075-4.296-0.355-9.336-1.813-16.082-10.065-16.082-19.663 0-16.905-13.62-30.655-30.358-30.655h-116.722c-16.742 0-30.358 13.752-30.358 30.655 0 11.214-9.202 20.263-20.294 20.023h-298.491v467.3zM984.334 200.445c0-32.394-26.102-58.745-58.18-58.745h-828.306c-32.080 0-58.18 26.351-58.18 58.745v19.287h346.807c8.574-29.263 35.44-50.675 67.164-50.675h116.722c31.724 0 58.59 21.414 67.166 50.675h346.809v-19.287h-0.002zM565.85 607.262c-8.515 8.513-22.315 8.513-30.833 0l-137.103-137.106c-8.513-8.513-8.513-22.317 0-30.83 4.258-4.258 9.837-6.384 15.414-6.384 5.579 0 11.157 2.131 15.414 6.384l137.107 137.104c8.513 8.513 8.513 22.317 0 30.832zM626.597 517.42c-7.833 7.831-20.528 7.831-28.362 0l-50.244-50.243c-7.832-7.831-7.832-20.53 0-28.363 3.917-3.917 9.049-5.873 14.18-5.873 5.134 0 10.263 1.957 14.18 5.873l50.244 50.243c7.833 7.831 7.833 20.53 0.002 28.363z" />
<glyph unicode="&#xe925;" glyph-name="followed" horiz-adv-x="1117" d="M1037.964-64h-958.836c-51.2 0-79.127 41.891-79.127 79.127v865.745c0 37.236 32.582 79.127 74.473 79.127h958.836c55.855 0 83.782-41.891 83.782-79.127v-856.436c0-41.891-23.273-88.436-79.127-88.436zM79.127 904.145c-13.964 0-23.273-9.309-23.273-23.273v-865.745c0-13.964 9.309-23.273 23.273-23.273h958.836c13.964 0 23.273 9.309 23.273 23.273v865.745c0 13.964-9.309 23.273-23.273 23.273h-958.836zM9.309 778.473h1098.473v-46.545h-1098.473v46.545zM730.764 941.382h65.164v-204.8h-65.164v204.8zM181.527 461.964h754.036v-46.545h-754.036v46.545zM181.527 322.327h754.036v-46.545h-754.036v46.545z" />
<glyph unicode="&#xe926;" glyph-name="dashboard" d="M855.161 673.006c-13.111 13.109-33.691 15.042-49.017 4.599-57.735-39.353-347.325-237.239-378.448-268.36-45.133-45.135-45.133-118.57 0-163.705 22.567-22.565 52.212-33.849 81.853-33.849s59.284 11.284 81.853 33.849c31.121 31.123 229.005 320.712 268.36 378.447 10.439 15.324 8.508 35.905-4.601 49.019zM536.831 300.11c-15.042-15.046-39.523-15.046-54.565 0-15.044 15.042-15.046 39.515-0.008 54.559 12.093 11.95 94.312 70.588 195.471 140.903-70.314-101.159-128.952-183.374-140.898-195.463zM185.030 166.36l-49.532-23.309c-36.243 62.4-55.252 132.047-55.252 203.344 0 52.237 9.985 102.268 28.207 148.409l56.756-26.263c5.597-2.59 11.505-3.817 17.325-3.817 14.952 0 29.306 8.099 36.205 21.976 9.581 19.274 1.156 42.396-18.826 51.641l-56.036 25.93c69.648 109.58 190.152 185.978 329.578 198.384v-58.217c0-21.378 17.963-38.707 40.123-38.707s40.123 17.329 40.123 38.707v58.247c47.803-4.198 94.057-15.942 137.965-35.063 20.192-8.796 43.959-0.128 53.077 19.352 9.118 19.485 0.136 42.409-20.062 51.206-66.536 28.974-137.562 43.667-211.106 43.667-137.181 0-266.151-51.535-363.155-145.113-97-93.58-150.422-217.999-150.422-350.338 0-97.794 30.088-192.905 87.013-275.043 7.668-11.061 20.344-17.198 33.38-17.198 5.926 0 11.929 1.268 17.568 3.921l82.252 38.707c19.917 9.373 28.187 32.545 18.471 51.759-9.716 19.212-33.738 27.188-53.655 17.819zM980.297 543.655c-8.801 19.232-31.739 27.791-51.245 19.104-19.498-8.683-28.17-31.311-19.367-50.543 24.447-53.411 36.841-110.469 36.841-169.588 0-70.482-18.412-139.342-53.506-201.008l-49.926 23.45c-19.312 9.071-42.429 0.984-51.629-18.070-9.198-19.050-0.996-41.851 18.321-50.924l81.348-38.208c5.352-2.512 11.025-3.714 16.634-3.714 12.59 0 24.831 6.066 32.224 16.976 54.96 81.081 84.009 174.966 84.009 271.498 0 70.033-14.705 137.669-43.703 201.027z" />
<glyph unicode="&#xe927;" glyph-name="download" d="M469.333 379.733v494.933c0 25.6 17.067 42.667 42.667 42.667s42.667-17.067 42.667-42.667v-494.933l98.133 98.133c17.067 17.067 42.667 17.067 59.733 0s17.067-42.667 0-59.733l-170.667-170.667c-17.067-17.067-42.667-17.067-59.733 0l-170.667 170.667c-17.067 17.067-17.067 42.667 0 59.733s42.667 17.067 59.733 0l98.133-98.133zM85.333 234.667c0 25.6 17.067 42.667 42.667 42.667s42.667-17.067 42.667-42.667v-128c0-25.6 17.067-42.667 42.667-42.667h597.333c25.6 0 42.667 17.067 42.667 42.667v128c0 25.6 17.067 42.667 42.667 42.667s42.667-17.067 42.667-42.667v-128c0-72.533-55.467-128-128-128h-597.333c-72.533 0-128 55.467-128 128v128z" />
<glyph unicode="&#xe928;" glyph-name="calendar" d="M879.678 582.013v137.45c0 27.49-20.617 48.107-48.107 48.107h-89.342v-48.107c0-27.49-20.617-48.107-48.107-48.107s-41.235 27.49-41.235 48.107v48.107h-274.899v-48.107c0-27.49-20.617-48.107-48.107-48.107s-48.107 27.49-48.107 48.107v48.107h-89.342c-27.49 0-48.107-20.617-48.107-48.107v-137.45h735.356zM879.678 492.671h-735.356v-412.349c0-27.49 20.617-48.107 48.107-48.107h639.141c27.49 0 48.107 20.617 48.107 48.107v412.349zM377.987 856.913h274.899v48.107c0 27.49 20.617 48.107 48.107 48.107s48.107-20.617 48.107-48.107v-48.107h89.342c75.597 0 137.45-61.852 137.45-137.45v-639.141c0-75.597-61.852-137.45-137.45-137.45h-646.013c-75.597 0-137.45 61.852-137.45 137.45v639.141c0 75.597 61.852 137.45 137.45 137.45h89.342v48.107c0 27.49 20.617 48.107 48.107 48.107s48.107-20.617 48.107-48.107v-48.107z" />
<glyph unicode="&#xe929;" glyph-name="chevron-left" d="M443.733 448l226.133 226.133c17.067 17.067 17.067 42.667 0 59.733s-42.667 17.067-59.733 0l-256-256c-17.067-17.067-17.067-42.667 0-59.733l256-256c17.067-17.067 42.667-17.067 59.733 0s17.067 42.667 0 59.733l-226.133 226.133z" />
<glyph unicode="&#xe92a;" glyph-name="chevron-right" d="M580.267 448l-226.133-226.133c-17.067-17.067-17.067-42.667 0-59.733s42.667-17.067 59.733 0l256 256c17.067 17.067 17.067 42.667 0 59.733l-256 256c-17.067 17.067-42.667 17.067-59.733 0s-17.067-42.667 0-59.733l226.133-226.133z" />
<glyph unicode="&#xe92b;" glyph-name="menu" d="M896 490.667h-768c-25.6 0-42.667-17.067-42.667-42.667s17.067-42.667 42.667-42.667h768c25.6 0 42.667 17.067 42.667 42.667s-17.067 42.667-42.667 42.667zM128 661.333h768c25.6 0 42.667 17.067 42.667 42.667s-17.067 42.667-42.667 42.667h-768c-25.6 0-42.667-17.067-42.667-42.667s17.067-42.667 42.667-42.667zM896 234.667h-768c-25.6 0-42.667-17.067-42.667-42.667s17.067-42.667 42.667-42.667h768c25.6 0 42.667 17.067 42.667 42.667s-17.067 42.667-42.667 42.667z" />
<glyph unicode="&#xe92c;" glyph-name="sign-out" d="M192 832v-768h640v256l-64-64v-128h-512v640h512v-128l64-64v256h-640zM717 608l-45-45 82-83h-309v-64h309l-82-83 45-45 138 137 22 23-22 23-138 137z" />
<glyph unicode="&#xe92d;" glyph-name="gear" d="M422 864l-5-26-19-95c-30.456-11.97-58.051-28.904-83-49l-93 32-25 8-13-23-64-110-13-23 19-17 72-63c-2.673-16.408-6-32.691-6-50s3.327-33.592 6-50l-72-63-19-17 13-23 64-110 13-23 25 8 93 32c24.956-20.098 52.558-37.032 83-49l19-95 5-26h180l5 26 19 95c30.456 11.97 58.051 28.904 83 49l93-32 25-8 13 23 64 110 13 23-19 17-72 63c2.673 16.416 6 32.691 6 50s-3.327 33.592-6 50l72 63 19 17-13 23-64 110-13 23-25-8-93-32c-24.956 20.098-52.558 37.032-83 49l-19 95-5 26h-180zM474 800h76l16-83 4-19 18-6c36.394-11.357 69.4-30.572 97-56l14-13 18 6 81 28 38-65-64-57-15-12 5-19c4.082-18.255 6-36.888 6-56s-1.915-37.703-6-56l-4-19 14-12 64-57-38-65-81 28-18 6-14-13c-27.608-25.436-60.58-44.644-97-56l-18-6-4-19-16-83h-76l-16 83-4 19-18 6c-36.394 11.357-69.4 30.572-97 56l-14 13-18-6-81-28-38 65 64 57 15 12-5 19c-4.082 18.255-6 36.888-6 56s1.918 37.745 6 56l5 19-15 12-64 57 38 65 81-28 18-6 14 13c27.608 25.436 60.58 44.644 97 56l18 6 4 19 16 83zM512 608c-87.987 0-160-72.013-160-160s72.013-160 160-160c87.987 0 160 72.013 160 160s-72.013 160-160 160zM512 544c53.398 0 96-42.602 96-96s-42.602-96-96-96c-53.398 0-96 42.602-96 96s42.602 96 96 96z" />
<glyph unicode="&#xe92e;" glyph-name="user" d="M512 800c-123.333 0-224-100.667-224-224 0-77.083 39.397-145.668 99-186-114.148-48.955-195-162.2-195-294h64c0 141.781 114.219 256 256 256s256-114.219 256-256h64c0 131.8-80.852 245.045-195 294 59.603 40.332 99 108.917 99 186 0 123.333-100.667 224-224 224zM512 736c88.745 0 160-71.255 160-160s-71.255-160-160-160c-88.745 0-160 71.255-160 160s71.255 160 160 160z" />
<glyph unicode="&#xe92f;" glyph-name="alert" horiz-adv-x="1172" d="M453.413 888.677c25.473 45.851 76.418 71.323 127.363 71.323s101.891-25.473 132.458-71.323l433.035-723.423c25.473-45.851 25.473-106.985 0-152.836s-76.418-76.418-132.458-76.418h-866.070c-56.040 0-101.891 30.567-132.458 76.418-25.473 45.851-25.473 106.985 0 152.836l438.129 723.423zM106.985 114.308c-10.189-15.284-10.189-35.662 0-50.945s25.473-25.473 40.756-25.473h860.975c20.378 0 35.662 10.189 45.851 25.473s10.189 35.662 0 50.945l-427.94 718.328c-10.189 15.284-25.473 25.473-45.851 25.473-15.284 0-35.662-10.189-45.851-25.473l-427.94-718.328zM529.831 598.289c0 30.567 20.378 50.945 50.945 50.945s50.945-20.378 50.945-50.945v-203.781c0-30.567-20.378-50.945-50.945-50.945s-50.945 20.378-50.945 50.945v203.781zM545.114 206.010c-20.378 20.378-20.378 50.945 0 71.323s50.945 20.378 71.323 0c20.378-20.378 20.378-50.945 0-71.323-15.284-20.378-50.945-20.378-71.323 0z" />
<glyph unicode="&#xe930;" glyph-name="search-left" d="M922.505 185.804l-78.556 78.556c-5.98 5.923-14.211 9.582-23.3 9.582s-17.32-3.658-23.302-9.584l0.002 0.002c-5.946-5.988-9.625-14.236-9.625-23.34s3.675-17.356 9.627-23.345l-0.001 0.001 78.472-78.556c8.613-8.645 13.942-20.574 13.942-33.744 0-26.403-21.406-47.81-47.81-47.81-13.234 0-25.209 5.375-33.867 14.065l-150.457 150.457 90.788 90.704c5.946 5.988 9.625 14.236 9.625 23.34s-3.675 17.356-9.627 23.345l0.001-0.001c-5.98 5.923-14.211 9.582-23.3 9.582s-17.32-3.658-23.302-9.584l0.002 0.002-33.952-33.868-47.6 47.6c42.82 52.823 68.748 120.862 68.748 194.959 0 85.751-34.728 163.392-90.887 219.628l0.003-0.003c-55.897 56.183-133.268 90.957-218.766 90.957-0.295 0-0.591 0-0.886-0.001h0.047c-82.884 0-160.856-32.204-219.604-90.956-56.055-56.24-90.714-133.833-90.714-219.524s34.659-163.284 90.72-219.53l-0.006 0.006c55.903-56.233 133.312-91.041 218.849-91.041 0.295 0 0.591 0 0.886 0.001h-0.047c71.816 0 139.968 24.384 195.056 68.82l47.516-47.516-33.784-33.868c-5.997-5.93-9.714-14.159-9.714-23.26s3.713-17.326 9.712-23.258l173.838-173.922c22.716-21.72 51.76-32.872 80.884-32.872s58.252 11.152 80.388 33.288c20.53 20.577 33.225 48.976 33.225 80.344s-12.696 59.767-33.227 80.346l0.002-0.002zM551.944 395.508c-44.022-44.209-104.942-71.565-172.251-71.565-0.238 0-0.472 0-0.709 0.001h0.036c-0.224-0.001-0.489-0.001-0.757-0.001-67.309 0-128.224 27.356-172.241 71.558l-0.011 0.011c-44.193 44.297-71.522 105.44-71.522 172.964s27.329 128.667 71.526 172.968l-0.004-0.004c44.023 44.209 104.942 71.565 172.251 71.565 0.264 0 0.533 0 0.797-0.001h-0.040c65.324 0 126.82-25.464 172.924-71.564 44.17-44.294 71.478-105.42 71.478-172.924s-27.312-128.626-71.487-172.928l0.004 0.004z" />
<glyph unicode="&#xe931;" glyph-name="share" d="M757.76 358.4c-46.080 0-81.92 35.84-81.92 81.92s35.84 81.92 81.92 81.92 81.92-35.84 81.92-81.92c0-46.080-35.84-81.92-81.92-81.92zM266.24 107.52c-46.080 0-81.92 35.84-81.92 81.92s35.84 81.92 81.92 81.92c107.52 0 107.52-163.84 0-163.84zM266.24 599.040c-46.080 0-81.92 35.84-81.92 81.92s35.84 81.92 81.92 81.92c107.52 0 107.52-163.84 0-163.84zM757.76 604.16c-51.2 0-92.16-20.48-122.88-56.32l-204.8 117.76c10.24 97.28-71.68 179.2-163.84 179.2-87.040 0-163.84-71.68-163.84-163.84s71.68-163.84 163.84-163.84c51.2 0 102.4 25.6 133.12 71.68l199.68-112.64c-5.12-20.48-5.12-46.080 0-66.56l-204.8-117.76c-30.72 40.96-76.8 61.44-128 61.44-87.040 0-163.84-71.68-163.84-163.84s76.8-163.84 163.84-163.84c97.28 0 179.2 87.040 163.84 189.44l204.8 117.76c30.72-35.84 76.8-56.32 122.88-56.32 92.16 0 163.84 71.68 163.84 163.84s-71.68 163.84-163.84 163.84z" />
<glyph unicode="&#xe932;" glyph-name="shelf-double-down" d="M102.4 844.8v-819.2h819.2v819.2h-819.2zM839.68 107.52h-655.36v655.36h655.36v-655.36zM266.24 271.36h491.52v-81.92h-491.52v81.92zM266.24 435.2h491.52v-81.92h-491.52v81.92z" />
<glyph unicode="&#xe933;" glyph-name="trash-2" d="M752.64 154.453c0-22.097-17.968-40.107-40.107-40.107h-401.067c-22.139 0-40.107 18.008-40.107 40.107v441.173h481.28v-441.173zM431.787 742.899c0 6.216 8.583 13.155 20.053 13.155h120.32c11.471 0 20.053-6.938 20.053-13.155v-67.059h-160.427v67.059zM872.96 675.84h-200.533v67.059c0 51.497-44.959 93.368-100.267 93.368h-120.32c-55.307 0-100.267-41.871-100.267-93.368v-67.059h-200.533c-22.059 0-40.107-18.048-40.107-40.107s18.048-40.107 40.107-40.107h40.107v-441.173c0-66.337 53.983-120.32 120.32-120.32h401.067c66.337 0 120.32 53.983 120.32 120.32v441.173h40.107c22.059 0 40.107 18.048 40.107 40.107s-18.048 40.107-40.107 40.107z" />
<glyph unicode="&#xe934;" glyph-name="star" d="M716.8 419.84c-40.96-40.96-61.44-102.4-51.2-158.72l15.36-107.52-92.16 51.2c-25.6 15.36-51.2 20.48-81.92 20.48-25.6 0-56.32-5.12-81.92-20.48l-92.16-51.2 20.48 107.52c10.24 56.32-10.24 117.76-51.2 158.72l-71.68 76.8 102.4 15.36c56.32 10.24 107.52 46.080 128 97.28l51.2 102.4 46.080-97.28c25.6-51.2 71.68-92.16 128-97.28l102.4-15.36-71.68-81.92zM901.12 460.8c46.080 46.080 20.48 122.88-40.96 133.12l-153.6 25.6c-25.6 5.12-46.080 20.48-56.32 40.96l-71.68 143.36c-10.24 25.6-35.84 40.96-66.56 40.96-25.6 0-51.2-15.36-66.56-40.96l-66.56-148.48c-15.36-20.48-35.84-35.84-56.32-40.96l-158.72-25.6c-56.32-10.24-81.92-87.040-40.96-128l112.64-112.64c20.48-20.48 25.6-46.080 20.48-71.68l-25.6-158.72c-5.12-51.2 30.72-92.16 76.8-92.16 10.24 0 25.6 5.12 35.84 10.24l138.24 76.8c10.24 5.12 20.48 10.24 35.84 10.24s25.6-5.12 35.84-10.24l138.24-76.8c10.24-5.12 25.6-10.24 35.84-10.24 40.96 0 81.92 40.96 71.68 92.16l-30.72 158.72c-5.12 25.6 5.12 51.2 20.48 66.56l112.64 117.76z" />
<glyph unicode="&#xe935;" glyph-name="user-add" horiz-adv-x="927" d="M614.4 619.52c0 81.92-66.56 148.48-153.6 148.48s-153.6-66.56-153.6-148.48 66.56-148.48 153.6-148.48 153.6 66.56 153.6 148.48zM762.88 102.4h-66.56c-20.48 0-35.84 15.36-35.84 35.84v0c0 20.48 15.36 35.84 35.84 35.84h10.24c25.6 0 46.080 25.6 35.84 51.2-46.080 112.64-153.6 174.080-281.6 174.080s-235.52-61.44-281.6-174.080c-10.24-25.6 10.24-51.2 35.84-51.2h15.36c20.48 0 35.84-15.36 35.84-35.84s-15.36-35.84-35.84-35.84h-61.44c-46.080 0-87.040 40.96-76.8 87.040 25.6 122.88 112.64 215.040 230.4 261.12-51.2 40.96-87.040 102.4-87.040 174.080 0 133.12 117.76 235.52 256 220.16 102.4-10.24 184.32-87.040 199.68-189.44 15.36-81.92-20.48-158.72-81.92-209.92 112.64-40.96 199.68-133.12 230.4-261.12 5.12-40.96-30.72-81.92-76.8-81.92zM578.56 138.24c0-20.48-15.36-35.84-35.84-35.84h-30.72c0-35.84 5.12-76.8-35.84-76.8-20.48 0-35.84 15.36-35.84 35.84v0 35.84h-51.2c-20.48 0-35.84 15.36-35.84 35.84v0c0 20.48 15.36 35.84 35.84 35.84h46.080v35.84c0 20.48 15.36 35.84 35.84 35.84s35.84-15.36 35.84-35.84v-35.84h30.72c25.6 5.12 40.96-10.24 40.96-30.72z" />
<glyph unicode="&#xe936;" glyph-name="asc" d="M721.92 680.96c15.36 0 30.72-15.36 30.72-30.72v-593.92c0-15.36-15.36-30.72-30.72-30.72s-30.72 15.36-30.72 30.72v593.92c0 20.48 15.36 30.72 30.72 30.72v0zM532.48 650.24c-10.24 10.24-10.24 30.72 0 46.080l122.88 117.76c20.48 20.48 46.080 30.72 66.56 30.72 25.6 0 51.2-10.24 66.56-25.6l117.76-117.76c15.36-10.24 15.36-30.72 0-46.080-10.24-15.36-30.72-15.36-46.080 0v0l-117.76 117.76c-10.24 10.24-30.72 10.24-46.080 0v0l-117.76-122.88c-10.24-10.24-30.72-10.24-46.080 0v0zM389.12 348.16c5.12-10.24 5.12-25.6-5.12-35.84l-184.32-225.28h122.88c0 15.36 15.36 30.72 30.72 30.72s30.72-15.36 30.72-30.72v-30.72c5.12-15.36-10.24-30.72-25.6-30.72h-225.28c-15.36 0-30.72 15.36-30.72 30.72 0 10.24 0 15.36 5.12 20.48l184.32 225.28h-128c0-15.36-15.36-30.72-30.72-30.72s-30.72 15.36-30.72 30.72v30.72c0 15.36 15.36 30.72 30.72 30.72h225.28c15.36 0 25.6-5.12 30.72-15.36v0zM245.76 844.8c81.92 0 143.36-66.56 143.36-143.36v-163.84c0-15.36-15.36-30.72-30.72-30.72s-30.72 15.36-30.72 30.72v66.56h-163.84v-66.56c0-15.36-15.36-30.72-30.72-30.72s-30.72 15.36-30.72 30.72v163.84c0 76.8 66.56 143.36 143.36 143.36zM327.68 665.6v35.84c0 46.080-35.84 81.92-81.92 81.92-40.96 0-81.92-40.96-81.92-81.92v-35.84h163.84z" />
<glyph unicode="&#xe937;" glyph-name="file" d="M744.005 878.958c76.636 0 138.767-62.097 138.825-138.724v-436.725c0-19.168-15.537-34.705-34.705-34.705s-34.705 15.537-34.705 34.705v0 436.721c0 0 0 0 0 0 0 38.269-30.97 69.303-69.212 69.41h-426.369c-38.293-0.054-69.317-31.111-69.317-69.41 0 0 0 0 0 0v0-610.061c0-38.223 31.094-69.41 69.41-69.41h426.073c38.293 0.054 69.317 31.111 69.317 69.41 0 0 0 0 0 0v0c-0.031 0.541-0.049 1.178-0.049 1.817 0 19.168 15.537 34.705 34.705 34.705s34.705-15.537 34.705-34.705c0-0.639-0.017-1.272-0.051-1.905l0.003 0.088c-0.054-76.563-62.077-138.62-138.622-138.727h-426.178c-76.553 0.107-138.577 62.165-138.634 138.723v610.065c0.054 76.563 62.077 138.62 138.622 138.727h0.012zM569.337 393.649c19.168 0 34.705-15.537 34.705-34.705s-15.537-34.705-34.705-34.705h-217.077c-19.168 0-34.705 15.537-34.705 34.705s15.537 34.705 34.705 34.705v0zM709.397 532.186c19.168 0 34.705-15.537 34.705-34.705s-15.537-34.705-34.705-34.705v0h-357.039c-19.168 0-34.705 15.537-34.705 34.705s15.537 34.705 34.705 34.705v0zM709.397 670.82c18.371-0.991 32.888-16.132 32.888-34.657s-14.521-33.665-32.801-34.654l-0.088-0.003h-357.039c-19.168 0-34.705 15.537-34.705 34.705s15.537 34.705 34.705 34.705v0z" />
<glyph unicode="&#xe938;" glyph-name="desc" d="M389.12 348.16c5.12-10.24 5.12-25.6-5.12-35.84l-184.32-225.28h122.88c0 15.36 15.36 30.72 30.72 30.72s30.72-15.36 30.72-30.72v-30.72c5.12-15.36-10.24-30.72-25.6-30.72h-225.28c-15.36 0-30.72 15.36-30.72 30.72 0 10.24 0 15.36 5.12 20.48l184.32 225.28h-128c0-15.36-15.36-30.72-30.72-30.72s-30.72 15.36-30.72 30.72v30.72c0 15.36 15.36 30.72 30.72 30.72h225.28c15.36 0 25.6-5.12 30.72-15.36zM721.92 189.44c-15.36 0-30.72 15.36-30.72 30.72v593.92c0 15.36 15.36 30.72 30.72 30.72s30.72-15.36 30.72-30.72v-593.92c0-20.48-15.36-30.72-30.72-30.72zM911.36 220.16c10.24-10.24 10.24-30.72 0-46.080l-122.88-117.76c-20.48-20.48-40.96-25.6-66.56-25.6s-51.2 10.24-66.56 25.6l-117.76 117.76c-10.24 10.24-15.36 30.72 0 46.080 10.24 10.24 30.72 15.36 46.080 0v0l117.76-117.76c10.24-10.24 30.72-10.24 46.080 0v0l122.88 117.76c5.12 10.24 25.6 10.24 40.96 0v0zM245.76 844.8c81.92 0 143.36-66.56 143.36-143.36v-163.84c0-15.36-15.36-30.72-30.72-30.72s-30.72 15.36-30.72 30.72v66.56h-163.84v-66.56c0-15.36-15.36-30.72-30.72-30.72s-30.72 15.36-30.72 30.72v163.84c0 76.8 66.56 143.36 143.36 143.36v0zM327.68 665.6v35.84c0 46.080-35.84 81.92-81.92 81.92-40.96 0-81.92-40.96-81.92-81.92v-35.84h163.84z" />
<glyph unicode="&#xe939;" glyph-name="fileboard" horiz-adv-x="717" d="M563.2 660.48c0 10.24-10.24 20.48-20.48 20.48h-20.48c0-46.080-35.84-81.92-81.92-81.92h-163.84c-46.080 0-81.92 35.84-81.92 81.92h-20.48c-10.24 0-20.48-10.24-20.48-20.48v-512c0-20.48 20.48-40.96 40.96-40.96h327.68c20.48 0 40.96 20.48 40.96 40.96v512zM276.48 721.92c0-20.48 20.48-40.96 40.96-40.96h81.92c20.48 0 40.96 20.48 40.96 40.96s-20.48 40.96-40.96 40.96h-81.92c-20.48 0-40.96-20.48-40.96-40.96zM645.12 680.96v-573.44c0-46.080-35.84-81.92-81.92-81.92h-409.6c-46.080 0-81.92 35.84-81.92 81.92v573.44c0 46.080 35.84 81.92 81.92 81.92h40.96c0 46.080 35.84 81.92 81.92 81.92h163.84c46.080 0 81.92-35.84 81.92-81.92h40.96c46.080 0 81.92-35.84 81.92-81.92zM476.16 481.28c15.36-15.36 15.36-40.96 0-56.32v0l-148.48-148.48-87.040 87.040c-15.36 15.36-15.36 46.080 0 61.44s40.96 15.36 56.32 0l30.72-30.72 87.040 87.040c15.36 15.36 40.96 15.36 61.44 0v0z" />
<glyph unicode="&#xe93a;" glyph-name="vote" d="M424.96 568.32c-5.12-10.24-15.36-20.48-25.6-20.48l-194.56-25.6 138.24-138.24c10.24-10.24 15.36-20.48 10.24-35.84l-30.72-189.44 168.96 92.16c10.24 5.12 25.6 5.12 35.84 0l168.96-92.16-30.72 189.44c0 10.24 0 25.6 10.24 35.84l143.36 138.24-189.44 25.6c-10.24 0-25.6 10.24-30.72 20.48l-87.040 174.080c0 0-87.040-174.080-87.040-174.080zM363.52 624.64l112.64 225.28c10.24 20.48 30.72 25.6 51.2 15.36 10.24-5.12 15.36-10.24 15.36-15.36l112.64-225.28 250.88-35.84c20.48-5.12 35.84-20.48 30.72-46.080 0-10.24-5.12-15.36-10.24-20.48l-179.2-174.080 40.96-245.76c5.12-20.48-10.24-40.96-30.72-46.080-10.24 0-15.36 0-25.6 5.12l-220.16 112.64-220.16-117.76c-20.48-10.24-40.96-5.12-51.2 15.36-5.12 5.12-5.12 15.36-5.12 25.6l40.96 245.76-179.2 179.2c-15.36 15.36-15.36 40.96 0 56.32 5.12 0 10.24 5.12 20.48 5.12l245.76 40.96z" />
<glyph unicode="&#xe93b;" glyph-name="desk" d="M821.98 816.506c64.148 0 116.186-51.23 116.186-114.392v-381.305c0-63.162-52.036-114.392-116.186-114.392h-271.266v-76.261h116.275c19.739 0 36.022-14.534 38.4-33.33l0.315-4.801c0-21.083-17.316-38.131-38.714-38.131h-309.98c-21.397 0-38.714 17.048-38.714 38.131s17.316 38.131 38.714 38.131h116.232v76.261h-271.176c-64.194 0-116.232 51.23-116.232 114.392v381.305c0 63.162 52.036 114.392 116.186 114.392h619.958zM821.98 740.245h-619.958c-21.351 0-38.714-17.048-38.714-38.131v-381.305c0-21.083 17.359-38.131 38.759-38.131h619.867c21.397 0 38.759 17.048 38.759 38.131v381.305c0 21.083-17.359 38.131-38.759 38.131zM752.582 681.927c21.397 0 38.714-17.048 38.714-38.131v-152.522c0-21.083-17.316-38.131-38.714-38.131s-38.714 17.048-38.714 38.131v152.522c0 21.083 17.359 38.131 38.759 38.131zM260.025 681.927c21.98 0 39.746-17.271 39.746-38.579 0-21.263-17.763-38.534-39.701-38.534s-39.658 17.271-39.658 38.579c0 21.263 17.763 38.534 39.701 38.534z" />
<glyph unicode="&#xe93c;" glyph-name="dashboard-sq" d="M798.72 844.8c67.84 0 122.88-55.040 122.88-122.88v-573.44c0-67.84-55.040-122.88-122.88-122.88h-573.44c-67.84 0-122.88 55.040-122.88 122.88v573.44c0 67.84 55.040 122.88 122.88 122.88h573.44zM348.16 517.172h-163.892l0.052-368.692c0-22.632 18.328-40.96 40.96-40.96h122.88v409.652zM839.68 517.172h-409.652v-409.652h368.692c22.632 0 40.96 18.328 40.96 40.96v368.692zM798.72 762.88h-573.44c-22.632 0-40.96-18.328-40.96-40.96l-0.052-122.88h655.412v122.88c0 22.632-18.328 40.96-40.96 40.96zM710.912 435.2c25.036 0 45.312-19.712 45.312-44.032 0-24.268-20.276-43.98-45.312-43.98s-45.312 19.712-45.312 44.032c0 24.268 20.276 43.98 45.312 43.98z" />
<glyph unicode="&#xe93d;" glyph-name="shield1" d="M527.36 30.72c-10.24-5.12-20.48-5.12-35.84 0-15.36 10.24-35.84 20.48-51.2 30.72-35.84 25.6-71.68 51.2-107.52 76.8-102.4 87.040-163.84 189.44-163.84 296.96v296.96c0 15.36 10.24 30.72 30.72 35.84l302.080 76.8c5.12 0 10.24 0 20.48 0l296.96-76.8c15.36-5.12 30.72-20.48 30.72-35.84v-296.96c0-112.64-61.44-209.92-163.84-296.96-35.84-30.72-71.68-56.32-107.52-76.8-15.36-15.36-30.72-25.6-51.2-30.72zM537.6 122.88c35.84 20.48 66.56 46.080 97.28 71.68 87.040 76.8 138.24 158.72 138.24 240.64v271.36l-261.12 61.44-261.12-61.44v-271.36c0-87.040 51.2-168.96 138.24-240.64 40.96-35.84 81.92-61.44 122.88-87.040 10.24 0 15.36 5.12 25.6 15.36v0z" />
<glyph unicode="&#xe93e;" glyph-name="box" d="M561.713 833.889l297.929-139.264c37.942-17.635 61.913-53.851 61.957-93.476v-331.816c0-39.667-24.015-75.841-61.913-93.43l-297.883-139.264c-31.475-14.702-68.511-14.702-99.94 0l-298.012 139.306c-37.942 17.848-61.741 54.325-61.44 93.777v331.429c0 39.667 24.057 75.841 61.913 93.43l297.971 139.264c31.303 14.572 68.122 14.572 99.425 0zM176.864 588.001v-318.537c-0.088-13.238 7.848-25.396 20.392-31.303l277.491-129.691v340.265l-297.929 139.264zM847.094 588.001l-297.929-139.264v-340.094l277.275 129.562c12.677 5.908 20.695 17.936 20.695 31.128l-0.042 318.665zM269.001 499.874c20.567 0 37.207-15.607 37.207-34.793v-150.732c0-19.229-16.643-34.838-37.207-34.838s-37.253 15.607-37.253 34.838v150.732c0 19.187 16.685 34.793 37.253 34.793zM495.529 771.587l-272.491-127.362 288.959-135.080 288.874 135.080-272.315 127.319c-10.435 4.828-22.679 4.828-33.027 0z" />
<glyph unicode="&#xe93f;" glyph-name="comment" d="M209.92 133.12l153.6 51.2c10.24 5.12 20.48 5.12 30.72 0 40.96-20.48 87.040-30.72 138.24-30.72 117.76 0 220.16 66.56 276.48 168.96 20.48 40.96 30.72 87.040 30.72 138.24v20.48c-10.24 153.6-133.12 281.6-286.72 286.72h-20.48c-46.080 0-92.16-10.24-138.24-30.72-102.4-51.2-168.96-158.72-168.96-276.48 0-46.080 10.24-92.16 30.72-138.24 5.12-10.24 5.12-20.48 0-30.72l-46.080-158.72zM921.6 455.68c0-61.44-15.36-117.76-40.96-174.080-66.56-133.12-199.68-215.040-348.16-215.040-56.32 0-107.52 10.24-158.72 35.84l-215.040-76.8c-30.72-10.24-61.44 20.48-51.2 51.2l71.68 220.16c-20.48 51.2-35.84 102.4-35.84 158.72 0 148.48 81.92 281.6 215.040 348.16 56.32 25.6 112.64 40.96 174.080 40.96h20.48c199.68-10.24 353.28-168.96 368.64-368.64v-20.48z" />
<glyph unicode="&#xe940;" glyph-name="transfert" horiz-adv-x="1111" d="M496.64 619.52h256c128 0 225.28-102.4 225.28-225.28v-317.44c0-25.6-20.48-46.080-46.080-46.080s-46.080 20.48-46.080 46.080v317.44c0 76.8-61.44 138.24-138.24 138.24h-256l148.48-148.48c15.36-15.36 15.36-46.080 0-66.56-15.36-15.36-46.080-15.36-66.56 0l-220.16 220.16c-15.36 15.36-15.36 46.080 0 66.56l225.28 225.28c15.36 15.36 46.080 15.36 66.56 0 15.36-15.36 15.36-46.080 0-66.56l-148.48-143.36zM419.84 768l-194.56-194.56 194.56-194.56c15.36-15.36 15.36-46.080 0-66.56-15.36-15.36-46.080-15.36-66.56 0l-225.28 225.28c-15.36 15.36-15.36 46.080 0 66.56l225.28 225.28c15.36 15.36 46.080 15.36 66.56 0 15.36-15.36 15.36-46.080 0-61.44z" />
<glyph unicode="&#xe941;" glyph-name="db-arrow-left" d="M491.52 143.36c25.6-25.6 25.6-66.56 0-92.16s-71.68-25.6-97.28 0l-343.040 343.040c-25.6 25.6-25.6 71.68 0 97.28l343.040 343.040c0 0 0 0 0 0 25.6 25.6 71.68 25.6 97.28 0s25.6-71.68 0-97.28l-291.84-302.080 291.84-291.84zM967.68 143.36c25.6-25.6 25.6-71.68 0-97.28s-71.68-25.6-97.28 0l-343.040 343.040c-25.6 25.6-25.6 71.68 0 97.28l343.040 337.92c25.6 25.6 66.56 25.6 92.16 0s25.6-71.68 0-97.28l-286.72-291.84 291.84-291.84c0 0 0 0 0 0z" />
<glyph unicode="&#xe942;" glyph-name="db-arrow-right" d="M824.32 435.2l-291.84 291.84c-25.6 25.6-25.6 71.68 0 97.28s71.68 25.6 97.28 0c0 0 0 0 0 0l343.040-343.040c25.6-25.6 25.6-71.68 0-97.28l-343.040-343.040c-25.6-25.6-71.68-25.6-97.28 0s-25.6 66.56 0 92.16l291.84 302.080zM56.32 143.36l291.84 291.84-291.84 291.84c-25.6 25.6-25.6 71.68 0 97.28s66.56 25.6 92.16 0l343.040-343.040c25.6-25.6 25.6-71.68 0-97.28l-337.92-337.92c-25.6-25.6-71.68-25.6-97.28 0-30.72 25.6-30.72 66.56 0 97.28 0 0 0 0 0 0z" />
<glyph unicode="&#xe943;" glyph-name="db-arrow-down" d="M512 122.88l291.84 291.84c25.6 25.6 71.68 25.6 97.28 0s25.6-71.68 0-97.28c0 0 0 0 0 0l-343.040-343.040c-25.6-25.6-71.68-25.6-97.28 0l-343.040 343.040c-25.6 25.6-25.6 71.68 0 97.28s66.56 25.6 92.16 0l302.080-291.84zM220.16 890.88l291.84-291.84 291.84 291.84c25.6 25.6 71.68 25.6 97.28 0s25.6-66.56 0-92.16l-343.040-343.040c-25.6-25.6-71.68-25.6-97.28 0l-337.92 337.92c-25.6 25.6-25.6 71.68 0 97.28s66.56 30.72 97.28 0c0 0 0 0 0 0z" />
<glyph unicode="&#xe944;" glyph-name="db-arrow-top" d="M512 747.52l-291.84-291.84c-25.6-25.6-71.68-25.6-97.28 0s-25.6 71.68 0 97.28c0 0 0 0 0 0l343.040 343.040c25.6 25.6 71.68 25.6 97.28 0l343.040-343.040c25.6-25.6 25.6-71.68 0-97.28s-66.56-25.6-92.16 0l-302.080 291.84zM803.84-20.48l-291.84 291.84-291.84-291.84c-25.6-25.6-71.68-25.6-97.28 0s-25.6 66.56 0 92.16l343.040 343.040c25.6 25.6 71.68 25.6 97.28 0l343.040-343.040c25.6-25.6 25.6-71.68 0-97.28-30.72-20.48-71.68-25.6-102.4 5.12 0 0 0 0 0 0z" />
<glyph unicode="&#xe945;" glyph-name="reply" d="M273.664 605.867h409.003c117.821 0 213.333-95.513 213.333-213.333v0-298.667c0-23.564-19.103-42.667-42.667-42.667s-42.667 19.103-42.667 42.667v0 298.667c0 70.692-57.308 128-128 128v0h-409.003l140.501-140.501c8.036-7.769 13.026-18.647 13.026-30.69 0-23.564-19.103-42.667-42.667-42.667-12.043 0-22.92 4.989-30.678 13.014l-213.345 213.345c-7.718 7.721-12.492 18.386-12.492 30.165s4.774 22.445 12.492 30.165l213.333 213.333c7.665 7.41 18.12 11.977 29.641 11.977 23.564 0 42.667-19.103 42.667-42.667 0-11.521-4.567-21.976-11.989-29.653l-140.489-140.489z" />
<glyph unicode="&#xe946;" glyph-name="file-join" d="M929.451 809.557c34.304-34.688 52.736-78.336 51.84-122.88-0.853-42.496-19.029-83.84-51.2-116.352-6.52-6.036-15.276-9.739-24.897-9.739-20.265 0-36.693 16.428-36.693 36.693 0 9.494 3.605 18.145 9.522 24.66l-0.027-0.030c33.323 33.707 46.080 88.832-0.683 136.107-39.424 39.893-90.709 40.661-130.731 2.048l-418.731-425.728c-6.528-6.571-19.413-23.808-0.085-43.307 6.613-6.741 13.653-10.112 20.907-10.112 7.381 0 14.933 3.584 21.419 10.069l289.707 295.936c6.487 5.9 15.146 9.512 24.649 9.512 20.265 0 36.693-16.428 36.693-36.693 0-9.226-3.405-17.658-9.028-24.105l0.037 0.044-289.792-296.107c-20.48-20.651-46.549-32-73.685-32-26.752 0-52.693 11.349-73.045 31.915-41.941 42.368-41.941 103.936 0 146.347l419.627 426.581c32.299 31.36 72.832 48.896 114.176 49.451h2.005c43.392 0 84.139-18.048 118.016-52.309zM814.336 503.339c14.507-14.080 14.933-37.291 0.853-51.84l-362.24-374.059c-46.635-47.189-106.667-73.216-168.96-73.216-61.653 0-121.6 26.283-168.747 73.941-49.024 49.621-74.112 109.099-72.533 172.075 1.536 59.051 27.307 116.779 72.619 162.56l361.429 361.344c6.734 7.36 16.382 11.959 27.104 11.959 20.265 0 36.693-16.428 36.693-36.693 0-10.701-4.58-20.331-11.888-27.039l-0.027-0.024-361.259-361.131c-56.96-57.6-79.019-151.467 0.043-231.424 33.792-34.133 74.069-52.224 116.608-52.224 42.496 0 83.968 18.219 116.693 51.328l361.813 373.632c6.678 6.883 16.014 11.155 26.347 11.155 9.909 0 18.901-3.928 25.503-10.311l-0.010 0.010z" />
<glyph unicode="&#xe947;" glyph-name="drag" d="M512 599.040c-20.48 0-35.84 15.36-35.84 35.84v92.16l-71.68-71.68c-15.36-15.36-40.96-15.36-51.2 0-10.24 10.24-10.24 30.72 0 46.080l133.12 133.12c15.36 15.36 35.84 15.36 46.080 0 5.12-5.12 10.24-15.36 10.24-25.6v-179.2c5.12-15.36-10.24-30.72-30.72-30.72 0 0 0 0 0 0zM286.72 281.6c15.36 15.36 15.36 35.84 0 46.080l-66.56 66.56h87.040c20.48 0 35.84 15.36 35.84 35.84s-15.36 35.84-35.84 35.84h-168.96c-20.48 5.12-35.84-10.24-35.84-30.72 0-10.24 5.12-20.48 10.24-25.6l128-128c10.24-10.24 35.84-10.24 46.080 0v0zM266.24 517.12l20.48 20.48c15.36 15.36 15.36 35.84 5.12 51.2-10.24 10.24-35.84 15.36-46.080 0 0 0-5.12 0-5.12-5.12l-20.48-20.48c-15.36-10.24-15.36-30.72-5.12-46.080s35.84-15.36 51.2 0c0 0 0 0 0 0zM670.72 655.36c15.36 15.36 15.36 35.84 0 46.080l-20.48 20.48c-15.36 15.36-35.84 15.36-46.080 0-15.36-15.36-15.36-35.84 0-46.080v0l20.48-20.48c10.24-15.36 30.72-15.36 46.080 0v0zM537.6 35.84l133.12 133.12c10.24 15.36 10.24 35.84-5.12 46.080-10.24 10.24-30.72 10.24-46.080 0l-76.8-76.8v97.28c0 20.48-15.36 35.84-35.84 35.84s-35.84-15.36-35.84-35.84v-179.2c0-20.48 15.36-35.84 35.84-35.84 15.36 5.12 25.6 10.24 30.72 15.36 0 0 0 0 0 0zM916.48 424.96c5.12 10.24 0 25.6-5.12 35.84l-128 128c-15.36 10.24-35.84 10.24-46.080-5.12-10.24-10.24-10.24-30.72 0-46.080l66.56-66.56h-87.040c-20.48 0-35.84-15.36-35.84-35.84s15.36-35.84 35.84-35.84h168.96c15.36 5.12 25.6 10.24 30.72 25.6 0-5.12 0 0 0 0zM783.36 286.72l20.48 20.48c10.24 15.36 10.24 35.84-5.12 46.080-10.24 10.24-30.72 10.24-46.080 0l-15.36-20.48c-15.36-10.24-15.36-35.84-5.12-46.080 10.24-15.36 35.84-15.36 51.2 0 0-5.12 0-5.12 0 0zM424.96 148.48c15.36 15.36 15.36 35.84 0 46.080l-20.48 20.48c-15.36 15.36-35.84 15.36-46.080 0-15.36-15.36-15.36-35.84 0-46.080l20.48-20.48c10.24-15.36 30.72-15.36 46.080 0v0zM512 471.040c-20.48 0-35.84-15.36-35.84-35.84s15.36-35.84 35.84-35.84c20.48 0 35.84 15.36 35.84 35.84s-15.36 35.84-35.84 35.84v0z" />
<glyph unicode="&#xe948;" glyph-name="features" d="M184.32 762.88v-204.8h204.8v204.8h-204.8zM143.36 844.8h286.72c20.48 0 40.96-20.48 40.96-40.96v-286.72c0-20.48-20.48-40.96-40.96-40.96h-286.72c-20.48 0-40.96 20.48-40.96 40.96v286.72c0 20.48 20.48 40.96 40.96 40.96zM593.92 844.8h286.72c20.48 0 40.96-20.48 40.96-40.96v-286.72c0-20.48-20.48-40.96-40.96-40.96h-286.72c-20.48 0-40.96 20.48-40.96 40.96v286.72c0 20.48 20.48 40.96 40.96 40.96zM634.88 558.080h204.8v204.8h-204.8v-204.8zM593.92 394.24h286.72c20.48 0 40.96-20.48 40.96-40.96v-286.72c0-20.48-20.48-40.96-40.96-40.96h-286.72c-20.48 0-40.96 20.48-40.96 40.96v286.72c0 20.48 20.48 40.96 40.96 40.96zM634.88 107.52h204.8v204.8h-204.8v-204.8zM143.36 394.24h286.72c20.48 0 40.96-20.48 40.96-40.96v-286.72c0-20.48-20.48-40.96-40.96-40.96h-286.72c-20.48 0-40.96 20.48-40.96 40.96v286.72c0 20.48 20.48 40.96 40.96 40.96zM184.32 107.52h204.8v204.8h-204.8v-204.8z" />
<glyph unicode="&#xe949;" glyph-name="flip" d="M492.928 900.011c5.557 2.837 12.12 4.5 19.072 4.5s13.515-1.663 19.314-4.612l-0.242 0.112 426.667-213.333c14.076-7.168 23.549-21.55 23.549-38.144s-9.474-30.976-23.307-38.032l-0.242-0.112-426.667-213.333c-5.557-2.837-12.12-4.5-19.072-4.5s-13.515 1.663-19.314 4.612l0.242-0.112-426.667 213.333c-14.076 7.168-23.549 21.55-23.549 38.144s9.474 30.976 23.307 38.032l0.242 0.112 426.667 213.333zM512 814.165l-331.264-165.632 331.264-165.632 331.264 165.632-331.264 165.632zM104.405 260.011l407.595-203.776 407.595 203.776c5.248 2.483 11.401 3.933 17.893 3.933 23.564 0 42.667-19.103 42.667-42.667 0-16.145-8.967-30.196-22.193-37.443l-426.889-213.444c-5.557-2.837-12.12-4.5-19.072-4.5s-13.515 1.663-19.314 4.612l0.242-0.112-426.667 213.333c-13.448 7.359-22.415 21.409-22.415 37.554 0 23.564 19.103 42.667 42.667 42.667 6.492 0 12.645-1.45 18.153-4.043l-0.26 0.11zM104.405 473.344l407.595-203.776 407.595 203.776c5.248 2.483 11.401 3.933 17.893 3.933 23.564 0 42.667-19.103 42.667-42.667 0-16.145-8.967-30.196-22.193-37.443l-426.889-213.444c-5.557-2.837-12.12-4.5-19.072-4.5s-13.515 1.663-19.314 4.612l0.242-0.112-426.667 213.333c-13.448 7.359-22.415 21.409-22.415 37.554 0 23.564 19.103 42.667 42.667 42.667 6.492 0 12.645-1.45 18.153-4.043l-0.26 0.11z" />
<glyph unicode="&#xe94a;" glyph-name="marker-map" d="M504.096 878.916c209.92 0 380.316-167.652 380.316-374.824 0-102.34-41.852-198.188-114.32-267.912l-236.376-232.548c-7.622-7.49-18.080-12.115-29.62-12.115s-21.998 4.625-29.625 12.119l0.005-0.005-236.792 232.716c-70.312 67.643-113.988 162.534-113.988 267.624 0 0.014 0 0.028 0 0.038v-0.002c0 207.172 170.48 374.824 380.4 374.824zM504.096 794.384c-163.576 0-295.864-130.128-295.864-290.376 0-78.708 32.116-152.508 88.528-207.008l207.34-204.012 207.088 203.76c54.695 52.289 88.692 125.83 88.692 207.31 0 0.012 0 0.019 0 0.031v-0.001c0 160.164-132.292 290.376-295.784 290.376zM504.096 667.668c93.372 0 169.068-75.692 169.068-169.068s-75.692-169.068-169.068-169.068v0c-93.372 0-169.068 75.692-169.068 169.068s75.692 169.068 169.068 169.068v0zM504.096 583.132c-46.688 0-84.532-37.848-84.532-84.532s37.848-84.532 84.532-84.532v0c46.688 0 84.532 37.848 84.532 84.532s-37.848 84.532-84.532 84.532v0z" />
<glyph unicode="&#xe94b;" glyph-name="pdf" horiz-adv-x="922" d="M127.171 551.259v-435.2c0-0.006 0-0.010 0-0.017 0-32.044 25.977-58.021 58.021-58.021 0.007 0 0.011 0 0.019 0h58.020c0.213 0.007 0.461 0.009 0.71 0.009 16.026 0 29.019-12.993 29.019-29.019s-12.993-29.019-29.019-29.019c-0.249 0-0.5 0.004-0.747 0.009l0.037-0.001h-58.021c-64.099 0-116.059 51.961-116.059 116.059v0 476.215l278.129 278.129h302.135c64.099 0 116.059-51.961 116.059-116.059v0-435.2c0.007-0.213 0.009-0.461 0.009-0.71 0-16.026-12.993-29.019-29.019-29.019s-29.019 12.993-29.019 29.019c0 0.249 0.004 0.5 0.009 0.747l-0.001-0.037v435.2c0 0.006 0 0.010 0 0.017 0 32.044-25.977 58.021-58.021 58.021-0.007 0-0.011 0-0.019 0h-261.119v-174.080c0-48.070-38.97-87.040-87.040-87.040v0h-174.080zM330.27 771.35l-162.070-162.070h133.051c16.016 0 29.019 12.986 29.019 29.019v133.051zM425.665 232.101c27.105 0 48.134-5.57 63.156-16.712 15.005-11.142 22.526-27.644 22.526-49.527 0-22.857-7.382-40.091-22.092-51.72-14.728-11.611-34.434-17.408-59.118-17.408h-22.264v-67.718h-48.586v203.082h66.377zM425.962 131.291c11.489 0 20.21 2.697 26.252 8.060s9.019 14.221 9.019 26.512c0 21.309-12.028 31.944-36.138 31.944h-17.216v-66.515h18.087zM594.385 232.101c32.206 0 58.021-7.154 77.482-21.515 19.479-14.361 29.194-40.718 29.194-79.015 0-37.706-9.453-64.201-28.428-79.554-18.975-15.337-43.59-22.995-73.809-22.995h-61.694v203.082h57.255zM585.768 197.232v-133.345h16.016c16.016 0 28.131 4.926 36.471 14.798 8.287 9.869 12.447 27.504 12.447 52.885 0 17.408-2.089 30.881-6.248 40.456-4.142 9.575-9.767 16.19-16.887 19.776-7.102 3.638-15.893 5.432-26.392 5.432h-15.407zM730.098 29.019v203.082h122.412l-5.048-34.295h-68.761v-53.896h59.883v-34.295h-59.883v-80.599h-48.603z" />
<glyph unicode="&#xe94c;" glyph-name="alerte-off" d="M935.777 858.977c6.547-6.545 10.597-15.587 10.597-25.576s-4.050-19.031-10.597-25.576v0l-157.848-158.009c20.933-38.36 32.090-81.61 32.090-126.407v-50.906c0-34.371 9.447-58.641 25.899-89.022 2.898-4.896 4.611-10.79 4.611-17.087 0-18.758-15.206-33.964-33.964-33.964-13.198 0-24.638 7.527-30.259 18.521l-0.090 0.193c-16.532 30.542-34.127 67.6-34.127 121.358v50.906c0 26.715-5.376 52.209-15.15 75.585l-428.501-428.42 504.738-0.081c11.075 0 18.733 4.887 23.213 9.205l2.85 3.014c4.936 5.805 7.936 13.387 7.936 21.671 0 2.245-0.22 4.439-0.641 6.56l0.036-0.212c-0.229 1.487-0.365 3.207-0.365 4.955 0 18.758 15.206 33.964 33.964 33.964 16.069 0 29.53-11.158 33.060-26.148l0.045-0.229c1.147-5.731 1.805-12.316 1.805-19.059 0-56.093-45.472-101.568-101.568-101.568-0.118 0-0.238 0-0.356 0h-155.387c0-56.199-45.692-101.81-101.81-101.81-56.199 0-101.81 45.611-101.81 101.81h-156.137c-16.29 0-32.172 3.829-46.345 11.075l-102.299-102.299c-6.545-6.545-15.587-10.594-25.576-10.594-19.975 0-36.167 16.192-36.167 36.167 0 9.987 4.049 19.031 10.594 25.576l104.906 104.906c-4.376 10.922-6.912 23.587-6.912 36.846 0 6.701 0.65 13.251 1.886 19.591l-0.105-0.641c11.728 62.551 34.943 103.196 55.385 138.951 20.769 36.405 37.221 65.158 37.221 110.282v50.906c0.564 134.008 100.159 244.584 229.356 262.353l1.385 0.157v49.682c-0.025 0.497-0.042 1.079-0.042 1.663 0 18.758 15.206 33.964 33.964 33.964s33.964-15.206 33.964-33.964c0-0.586-0.015-1.164-0.042-1.742l0.004 0.081v-49.521c61.292-7.961 114.893-36.052 155.019-77.315l0.059-0.059 150.355 150.272c6.545 6.547 15.587 10.597 25.576 10.597s19.031-4.050 25.576-10.597v0zM579.847 102.645h-67.847c0.909-18.028 15.75-32.301 33.923-32.301s33.012 14.271 33.92 32.222l0.004 0.081zM548.813 720.269h-6.434c-107.297-2.052-193.537-89.322-193.928-196.822v-50.943c0-63.204-23.457-104.254-46.18-143.919-15.557-27.285-31.602-55.385-42.109-93.748l426.058 425.732c-34.854 36.101-83.395 58.794-137.235 59.698l-0.168 0.003z" />
<glyph unicode="&#xe94d;" glyph-name="plus" horiz-adv-x="945" d="M835.005 452.492h-331.706v326.596c-0.056 16.779-13.672 30.361-30.457 30.361-0.070 0-0.138 0-0.208-0.001h0.011c-0.088 0.001-0.192 0.001-0.293 0.001-16.789 0-30.404-13.582-30.457-30.358v-326.7h-331.509c-0.089 0.001-0.193 0.001-0.297 0.001-16.718 0-30.29-13.469-30.456-30.15v-0.016c0-16.703 13.755-30.261 30.754-30.261h331.509v-326.792c0-16.703 13.755-30.261 30.754-30.261 0.088-0.001 0.193-0.001 0.297-0.001 16.752 0 30.347 13.526 30.457 30.254v326.803h331.606c0.059 0 0.126-0.001 0.197-0.001 16.752 0 30.347 13.525 30.457 30.253v0.011c-0.11 16.737-13.705 30.265-30.457 30.265-0.104 0-0.208 0-0.313-0.001h0.016z" />
<glyph unicode="&#xe94e;" glyph-name="setting" d="M410.202 180.462c18.73 0 33.959-15.148 33.959-33.878v-111.813c0-18.756-15.206-33.959-33.959-33.959s-33.959 15.206-33.959 33.959v111.813c0 18.73 15.228 33.878 33.959 33.878zM179.488 625.032c18.73 0 33.878-15.228 33.878-33.959v-556.222c0.025-0.497 0.042-1.079 0.042-1.663 0-18.756-15.206-33.959-33.959-33.959s-33.959 15.206-33.959 33.959c0 0.586 0.015 1.164 0.043 1.742l-0.004-0.081v556.222c0 18.73 15.228 33.959 33.959 33.959zM842.881 579.101c18.73 0 33.878-15.148 33.878-33.878v-510.453c0.025-0.497 0.042-1.079 0.042-1.663 0-18.756-15.206-33.959-33.959-33.959s-33.959 15.206-33.959 33.959c0 0.586 0.015 1.164 0.043 1.742l-0.004-0.081v510.453c0 18.73 15.148 33.878 33.878 33.878zM622.266 329.819c18.73 0 33.959-15.228 33.959-33.959v-261.090c0-18.756-15.206-33.959-33.959-33.959s-33.959 15.206-33.959 33.959v261.17c0 18.73 15.228 33.959 33.959 33.959zM410.202 869.507c18.73 0 33.959-15.148 33.959-33.878v-519.165h33.878c18.756 0 33.959-15.206 33.959-33.959s-15.206-33.959-33.959-33.959h-135.676c-18.756 0-33.959 15.206-33.959 33.959s15.206 33.959 33.959 33.959h33.878v519.165c0 18.73 15.228 33.878 33.959 33.878zM622.266 869.507c18.73 0 33.959-15.148 33.959-33.878v-370.299h33.878c0.497 0.025 1.079 0.042 1.663 0.042 18.756 0 33.959-15.206 33.959-33.959s-15.206-33.959-33.959-33.959c-0.586 0-1.164 0.015-1.742 0.043l0.081-0.004h-135.676c-0.497-0.025-1.079-0.042-1.663-0.042-18.756 0-33.959 15.206-33.959 33.959s15.206 33.959 33.959 33.959c0.586 0 1.164-0.015 1.742-0.043l-0.081 0.004h33.878v370.299c0 18.73 15.228 33.878 33.959 33.878zM842.881 869.507c18.73 0 33.878-15.148 33.878-33.878v-120.69h33.959c0.497 0.025 1.079 0.042 1.663 0.042 18.756 0 33.959-15.206 33.959-33.959s-15.206-33.959-33.959-33.959c-0.586 0-1.164 0.015-1.742 0.043l0.081-0.004h-135.757c-0.497-0.025-1.079-0.042-1.663-0.042-18.756 0-33.959 15.206-33.959 33.959s15.206 33.959 33.959 33.959c0.586 0 1.164-0.015 1.742-0.043l-0.081 0.004h33.959v120.69c0 18.73 15.148 33.878 33.878 33.878zM179.488 869.507c18.73 0 33.878-15.148 33.878-33.878v-75.086h33.959c0.497 0.025 1.079 0.042 1.663 0.042 18.756 0 33.959-15.206 33.959-33.959s-15.206-33.959-33.959-33.959c-0.586 0-1.164 0.015-1.742 0.043l0.081-0.004h-135.757c-0.497-0.025-1.079-0.042-1.663-0.042-18.756 0-33.959 15.206-33.959 33.959s15.206 33.959 33.959 33.959c0.586 0 1.164-0.015 1.742-0.043l-0.081 0.004h33.959v75.086c0 18.73 15.228 33.878 33.959 33.878z" />
<glyph unicode="&#xe94f;" glyph-name="chat" d="M276.123 895.979c0.527 0.028 1.144 0.044 1.765 0.044 19.9 0 36.029-16.132 36.029-36.029s-16.132-36.029-36.029-36.029c-0.622 0-1.236 0.016-1.849 0.047l0.086-0.005h-23.328c-39.73-0.048-71.923-32.243-71.974-71.969v-633.673c0-39.745 32.23-71.974 71.974-71.974h349.235c39.745 0 71.974 32.315 71.974 71.974v170.815c-0.028 0.527-0.044 1.144-0.044 1.765 0 19.9 16.132 36.029 36.029 36.029s36.029-16.132 36.029-36.029c0-0.622-0.016-1.236-0.047-1.849l0.005 0.086v-170.815c0-79.404-64.541-143.945-143.945-143.945h-349.235c-79.477 0.1-143.884 64.476-144.031 143.932v633.681c0 79.404 64.63 143.945 144.031 143.945zM463.443 174.009c19.9 0 36.029-16.132 36.029-36.029s-16.132-36.029-36.029-36.029h-72.059c-19.9 0-36.029 16.132-36.029 36.029s16.132 36.029 36.029 36.029v0zM607.388 895.979c139.971 0 253.847-105.582 253.847-235.36 0-130.466-113.878-236.224-253.847-236.224h-71.974c-0.034 0-0.075 0-0.116 0-2.157 0-4.271 0.19-6.324 0.55l0.218-0.032c-30.671 0.752-59.757 6.549-86.784 16.588l1.851-0.604-112.15-49.421c-4.287-1.95-9.298-3.088-14.572-3.088-19.85 0-35.943 16.092-35.943 35.943 0 4.882 0.974 9.535 2.735 13.78l-0.088-0.238 38.189 94.61c-25.554 35.558-40.87 79.97-40.87 127.959 0 0.062 0 0.123 0 0.184v-0.010c0 129.774 113.878 235.36 253.847 235.36zM607.388 824.007h-71.974c-100.226 0-181.789-73.27-181.789-163.299 0-36.289 12.96-70.503 37.325-99.19 8.726-10.196 11.060-24.452 6.048-36.893l-12.788-31.537 44.758 19.786c4.279 1.936 9.28 3.065 14.541 3.065 5.11 0 9.973-1.064 14.376-2.982l-0.232 0.091c25.056-10.714 51.238-16.156 77.761-16.156 2.060-0.019 4.060-0.208 6.007-0.55l-0.219 0.032h66.183c100.226 0 181.789 73.441 181.789 163.817 0 90.55-81.564 163.817-181.789 163.817zM483.226 723.176c15.889 0 28.774-12.881 28.774-28.774s-12.881-28.774-28.774-28.774v0c-15.889 0-28.774 12.881-28.774 28.774s12.881 28.774 28.774 28.774v0zM713.574 723.176c15.889 0 28.774-12.881 28.774-28.774s-12.881-28.774-28.774-28.774v0c-15.889 0-28.774 12.881-28.774 28.774s12.881 28.774 28.774 28.774v0zM598.402 723.176c15.889 0 28.774-12.881 28.774-28.774s-12.881-28.774-28.774-28.774v0c-15.889 0-28.774 12.881-28.774 28.774s12.881 28.774 28.774 28.774v0z" />
<glyph unicode="&#xe950;" glyph-name="favoris" d="M966.587 563.801c-12.706 40.029-49.535 68.528-93.022 68.528-0.327 0-0.653-0.002-0.979-0.006h-183.285c-0.268-0.008-0.584-0.015-0.901-0.015-11.469 0-21.222 7.343-24.815 17.588l-0.057 0.184-56.629 175.577c-12.786 39.896-49.549 68.27-92.942 68.27-0.355 0-0.71-0.002-1.063-0.006h0.054c-43.699 0-80.504-26.72-94.037-68.266l-56.629-175.489c-3.623-10.472-13.399-17.86-24.901-17.86-0.337 0-0.672 0.008-1.005 0.019l0.048-0.002h-183.334c-0.276 0.003-0.602 0.005-0.929 0.005-43.487 0-80.316-28.498-92.832-67.838l-0.19-0.689c-13.533-41.803 0.517-85.419 35.857-111.19l148.339-107.743c9.567-6.895 13.533-19.049 9.912-30.255l-56.715-174.455c-3.211-9.248-5.065-19.908-5.065-30.999 0-32.647 16.061-61.542 40.714-79.214l0.292-0.199c17.584-12.843 37.839-19.221 58.094-19.221 20.169 0 40.424 6.378 58.008 19.221l148.339 107.743c9.567 6.895 22.41 6.895 31.892 0l148.339-107.743c35.34-25.685 80.935-25.685 116.189 0 35.34 25.599 49.39 68.956 35.857 110.414l-38.787 119.378c-5.339 13.521-18.292 22.914-33.439 22.914-19.802 0-35.857-16.054-35.857-35.857 0-3.274 0.439-6.446 1.261-9.462l-0.059 0.251 38.787-119.378c0.924-2.579 1.459-5.549 1.459-8.65 0-8.955-4.463-16.866-11.285-21.634l-0.085-0.057c-4.372-3.361-9.922-5.389-15.946-5.389s-11.574 2.026-16.007 5.434l0.061-0.045-148.253 107.743c-16.064 11.841-36.25 18.953-58.094 18.953s-42.030-7.11-58.366-19.142l0.272 0.191-148.339-107.743c-4.372-3.361-9.922-5.389-15.946-5.389s-11.574 2.026-16.007 5.434l0.061-0.045c-6.908 4.822-11.371 12.737-11.371 21.691 0 3.098 0.535 6.071 1.515 8.833l-0.057-0.184 56.715 174.455c3.082 9.129 4.863 19.642 4.863 30.568 0 32.731-15.961 61.733-40.524 79.65l-0.281 0.196-148.253 107.743c-6.969 4.927-11.465 12.951-11.465 22.025 0 3.228 0.568 6.323 1.611 9.19l-0.061-0.187c3.374 11.058 13.484 18.966 25.443 18.966 0.146 0 0.292-0.002 0.438-0.005h183.226c43.096 0 80.935 27.151 93.951 67.49l56.715 175.404c3.334 10.96 13.35 18.8 25.2 18.8 0.232 0 0.461-0.003 0.692-0.008l-0.034 0.002c4.568 0 20.083-1.379 25.771-18.704l56.629-175.577c13.102-40.252 50.855-67.318 93.951-67.318h183.42c18.101 0 24.22-14.653 25.685-19.049 1.005-2.708 1.586-5.836 1.586-9.101 0-9.015-4.436-16.995-11.245-21.874l-0.080-0.056-101.19-73.437c-8.737-6.612-14.323-16.988-14.323-28.668 0-19.802 16.054-35.857 35.857-35.857 7.721 0 14.874 2.441 20.726 6.593l-0.113-0.076 101.105 73.523c35.34 25.685 49.476 69.3 35.857 111.104z" />
<glyph unicode="&#xe951;" glyph-name="facebook" d="M921.080 268.796c19.136 0 34.612 15.56 34.612 34.696v436.808c0 76.46-62.152 138.612-138.612 138.612h-610.196c-76.46 0-138.612-62.152-138.612-138.612v-610.196c0-76.46 62.152-138.612 138.612-138.612h610.196c76.46 0 138.612 62.152 138.612 138.612 0.028 0.506 0.040 1.103 0.040 1.699 0 19.159-15.533 34.696-34.696 34.696s-34.696-15.533-34.696-34.696c0-0.6 0.016-1.192 0.047-1.782l-0.003 0.084c0-38.272-31.116-69.308-69.308-69.308h-182.044v301.604h78.044c0.506-0.028 1.103-0.040 1.699-0.040 19.159 0 34.696 15.533 34.696 34.696s-15.533 34.696-34.696 34.696c-0.6 0-1.192-0.016-1.782-0.047l0.084 0.003h-78.044v95.348c0 38.272 31.116 69.308 69.388 69.308h17.304c19.159 0 34.696 15.533 34.696 34.696s-15.533 34.696-34.696 34.696h-17.388c-76.38 0-138.612-62.236-138.612-138.696v-95.348h-78.044c-0.506 0.028-1.103 0.040-1.699 0.040-19.159 0-34.696-15.533-34.696-34.696s15.533-34.696 34.696-34.696c0.6 0 1.192 0.016 1.782 0.047l-0.084-0.003h78.044v-301.604h-358.848c-38.257 0.048-69.26 31.047-69.308 69.301v610.203c0 38.272 31.116 69.308 69.308 69.308h610.196c38.272 0 69.308-31.116 69.308-69.308v-436.808c0-19.136 15.56-34.696 34.696-34.696z" />
<glyph unicode="&#xe952;" glyph-name="datas" d="M154.904 435.2c-0.027 0-0.056 0-0.086 0-25.434 0-46.053-20.618-46.053-46.053 0 0 0 0 0 0v0-368.674c0-25.458 20.637-46.095 46.095-46.095s46.095 20.637 46.095 46.095v0 368.674c0 25.434-20.618 46.053-46.053 46.053v0zM385.25 895.977c-25.434 0-46.053-20.618-46.053-46.053v-829.451c0-25.458 20.637-46.095 46.095-46.095s46.095 20.637 46.095 46.095v0 829.451c0 0 0 0 0 0 0 25.434-20.618 46.053-46.053 46.053-0.031 0-0.062 0-0.091 0h0.005zM846.113 250.907c-0.027 0-0.057 0-0.086 0-25.434 0-46.053-20.618-46.053-46.053 0-0.031 0-0.062 0-0.092v0.005-184.293c0-25.458 20.637-46.095 46.095-46.095s46.095 20.637 46.095 46.095v0 184.293c0 0.027 0 0.056 0 0.086 0 25.434-20.618 46.053-46.053 46.053 0 0 0 0 0 0v0zM615.682 619.493c-25.434 0-46.053-20.618-46.053-46.053v-552.968c0-25.434 20.618-46.053 46.053-46.053s46.053 20.618 46.053 46.053v0 552.968c0 25.434-20.618 46.053-46.053 46.053v0z" />
</font>
</defs>
</svg>
